Giant Steps / The Book Of Pride
Жанр: Synth-pop, Dance-pop
Носитель: CD
Год издания: 1988
Издатель (лейбл): A&M Records
Номер по каталогу: CD 5190
Аудиокодек: FLAC (*.flac)
Тип рипа: tracks+.cue
Битрейт аудио: lossless
Продолжительность: 44:36
Источник (релизер): обмен
Наличие сканов в содержимом раздачи: да
Треклист:
01. Giant Steps - Steamy [4:08]
02. Giant Steps - (The World Don't Need) Another Lover [4:15]
03. Giant Steps - Into You [4:26]
04. Giant Steps - Golden Hours (Bone) [4:42]
05. Giant Steps - Do You Still Care [5:13]
06. Giant Steps - Same Planet Different World [3:38]
07. Giant Steps - The Book Of Pride [4:20]
08. Giant Steps - End Of The War [5:12]
09. Giant Steps - Dance Away [4:14]
10. Giant Steps - Dream Wonderful [4:27]

Лог создания рипа

Exact Audio Copy V1.0 beta 3 from 29. August 2011
EAC extraction logfile from 6. February 2016, 20:09
Giant Steps / The Book Of Pride
Used drive : ASUS DRW-20B1LT Adapter: 2 ID: 0
Read mode : SecureUtilize accurate stream : YesDefeat audio cache : YesMake use of C2 pointers : No
Read offset correction : 6Overread into Lead-In and Lead-Out : NoFill up missing offset samples with silence : YesDelete leading and trailing silent blocks : NoNull samples used in CRC calculations : YesUsed interface : Native Win32 interface for Win NT & 2000Gap handling : Appended to previous track
Used output format : User Defined EncoderSelected bitrate : 896 kBit/sQuality : HighAdd ID3 tag : NoCommand line compressor : C:\Program Files\Exact Audio Copy\Flac\flac.exeAdditional command line options : -8 -V -T "ARTIST=%artist%" -T "TITLE=%title%" -T "ALBUM=%albumtitle%" -T "DATE=%year%" -T "TRACKNUMBER=%tracknr%" -T "GENRE=%genre%" -T "COMMENT=EAC FLAC -8" %source%
TOC of the extracted CD
Track | Start | Length | Start sector | End sector --------------------------------------------------------- 1 | 0:00.00 | 4:08.37 | 0 | 18636 2 | 4:08.37 | 4:14.53 | 18637 | 37739 3 | 8:23.15 | 4:25.62 | 37740 | 57676 4 | 12:49.02 | 4:42.35 | 57677 | 78861 5 | 17:31.37 | 5:12.58 | 78862 | 102319 6 | 22:44.20 | 3:38.07 | 102320 | 118676 7 | 26:22.27 | 4:20.20 | 118677 | 138196 8 | 30:42.47 | 5:12.13 | 138197 | 161609 9 | 35:54.60 | 4:14.17 | 161610 | 180676 10 | 40:09.02 | 4:26.50 | 180677 | 200676
Track 1
Filename M:\EACrips\Giant Steps - The Book Of Pride\01 - Steamy.wav
Pre-gap length 0:00:02.00
Peak level 91.4 % Extraction speed 3.7 X Track quality 100.0 % Test CRC 4222C59D Copy CRC 4222C59D Accurately ripped (confidence 4) [8DBBBCC5] (AR v2) Copy OK
Track 2
Filename M:\EACrips\Giant Steps - The Book Of Pride\02 - (The World Don't Need) Another Lover.wav
Pre-gap length 0:00:00.32
Peak level 73.6 % Extraction speed 4.2 X Track quality 100.0 % Test CRC 88CB256A Copy CRC 88CB256A Accurately ripped (confidence 4) [5019CE27] (AR v2) Copy OK
Track 3
Filename M:\EACrips\Giant Steps - The Book Of Pride\03 - Into You.wav
Pre-gap length 0:00:01.00
Peak level 87.1 % Extraction speed 4.6 X Track quality 100.0 % Test CRC 1A593307 Copy CRC 1A593307 Accurately ripped (confidence 4) [D64393CE] (AR v2) Copy OK
Track 4
Filename M:\EACrips\Giant Steps - The Book Of Pride\04 - Golden Hours (Bone).wav
Pre-gap length 0:00:00.25
Peak level 100.0 % Extraction speed 4.9 X Track quality 100.0 % Test CRC DFFDCD69 Copy CRC DFFDCD69 Accurately ripped (confidence 4) [BB5F3CB9] (AR v2) Copy OK
Track 5
Filename M:\EACrips\Giant Steps - The Book Of Pride\05 - Do You Still Care.wav
Pre-gap length 0:00:00.62
Peak level 66.7 % Extraction speed 5.4 X Track quality 100.0 % Test CRC B07961CD Copy CRC B07961CD Accurately ripped (confidence 4) [47CAB9F3] (AR v2) Copy OK
Track 6
Filename M:\EACrips\Giant Steps - The Book Of Pride\06 - Same Planet Different World.wav
Pre-gap length 0:00:01.18
Peak level 95.3 % Extraction speed 4.3 X Track quality 99.9 % Test CRC C0D2CFBF Copy CRC C0D2CFBF Accurately ripped (confidence 4) [0E672F0D] (AR v2) Copy OK
Track 7
Filename M:\EACrips\Giant Steps - The Book Of Pride\07 - The Book Of Pride.wav
Pre-gap length 0:00:00.27
Peak level 81.2 % Extraction speed 4.8 X Track quality 99.9 % Test CRC 722A17C5 Copy CRC 722A17C5 Accurately ripped (confidence 4) [00F56626] (AR v2) Copy OK
Track 8
Filename M:\EACrips\Giant Steps - The Book Of Pride\08 - End Of The War.wav
Pre-gap length 0:00:01.42
Peak level 74.8 % Extraction speed 6.2 X Track quality 100.0 % Test CRC 36146611 Copy CRC 36146611 Accurately ripped (confidence 4) [2AC16354] (AR v2) Copy OK
Track 9
Filename M:\EACrips\Giant Steps - The Book Of Pride\09 - Dance Away.wav
Pre-gap length 0:00:00.50
Peak level 79.2 % Extraction speed 6.3 X Track quality 100.0 % Test CRC 9317B8DB Copy CRC 9317B8DB Accurately ripped (confidence 4) [63980BC7] (AR v2) Copy OK
Track 10
Filename M:\EACrips\Giant Steps - The Book Of Pride\10 - Dream Wonderful.wav
Pre-gap length 0:00:01.02
Peak level 77.8 % Extraction speed 6.6 X Track quality 100.0 % Test CRC 0A395C1E Copy CRC 0A395C1E Accurately ripped (confidence 4) [1124AD9C] (AR v2) Copy OK
All tracks accurately ripped
No errors occurred
End of status report
==== Log checksum 1B6E0C381CF406E6DA5206626CBCF282CDC84DB53E417837F4330E4FE0FB5FA9 ====

Содержание индексной карты (.CUE)

REM GENRE PopREM DATE 1988REM DISCID 740A730AREM COMMENT "ExactAudioCopy v1.0b3"PERFORMER "Giant Steps"TITLE "The Book Of Pride"FILE "01 - Steamy.wav" WAVE  TRACK 01 AUDIO    TITLE "Steamy"    PERFORMER "Giant Steps"    INDEX 01 00:00:00  TRACK 02 AUDIO    TITLE "(The World Don't Need) Another Lover"    PERFORMER "Giant Steps"    INDEX 00 04:08:05FILE "02 - (The World Don't Need) Another Lover.wav" WAVE    INDEX 01 00:00:00  TRACK 03 AUDIO    TITLE "Into You"    PERFORMER "Giant Steps"    INDEX 00 04:13:53FILE "03 - Into You.wav" WAVE    INDEX 01 00:00:00  TRACK 04 AUDIO    TITLE "Golden Hours (Bone)"    PERFORMER "Giant Steps"    INDEX 00 04:25:37FILE "04 - Golden Hours (Bone).wav" WAVE    INDEX 01 00:00:00  TRACK 05 AUDIO    TITLE "Do You Still Care"    PERFORMER "Giant Steps"    INDEX 00 04:41:48FILE "05 - Do You Still Care.wav" WAVE    INDEX 01 00:00:00  TRACK 06 AUDIO    TITLE "Same Planet Different World"    PERFORMER "Giant Steps"    INDEX 00 05:11:40FILE "06 - Same Planet Different World.wav" WAVE    INDEX 01 00:00:00  TRACK 07 AUDIO    TITLE "The Book Of Pride"    PERFORMER "Giant Steps"    INDEX 00 03:37:55FILE "07 - The Book Of Pride.wav" WAVE    INDEX 01 00:00:00  TRACK 08 AUDIO    TITLE "End Of The War"    PERFORMER "Giant Steps"    INDEX 00 04:18:53FILE "08 - End Of The War.wav" WAVE    INDEX 01 00:00:00  TRACK 09 AUDIO    TITLE "Dance Away"    PERFORMER "Giant Steps"    INDEX 00 05:11:38FILE "09 - Dance Away.wav" WAVE    INDEX 01 00:00:00  TRACK 10 AUDIO    TITLE "Dream Wonderful"    PERFORMER "Giant Steps"    INDEX 00 04:13:15FILE "10 - Dream Wonderful.wav" WAVE    INDEX 01 00:00:00

If you like the topic, please click share to help develop our site.

To download the file disable ad blocking, and reload the page.

disable adblock How to disable ad blocking?

Download by magnet link 350 MB Download Torrent

Login using:

Similar topics



   
Current time is: 27-Jun 09:06 :: All times are UTC + 3