Fuse Patrol / Barney's Bounce
Жанр: Jazz / Fusion / Jazz-Rock
Носитель: WEB
Год издания: 2017
Издатель (лейбл): Web Release
Страна исполнителя (группы): US
Аудиокодек: FLAC (*.flac)
Тип рипа: tracks
Битрейт аудио: lossless
Продолжительность: 59:43 min
Источник (релизер): bandcamp.com
Наличие сканов в содержимом раздачи:
Треклист:
1. Rush to Judgment. 4:57
2. Barney's Bounce. 4:46
3. Fractal. 4:29
4. Coppermine. 6:27
5. Half Step. 6:17
6. Reflections of the Day. 2:54
7. Introspection. 6:13
8. Poetic License. 5:50
9. Swing Release. 5:40
10. Scratch Happy. 5:58
11. Northern Soul. 6:09

DRM.log

foobar2000 1.3.8 / Dynamic Range Meter 1.1.1log date: 2018-02-06 21:24:47
--------------------------------------------------------------------------------Analyzed: Fuse Patrol / Barney's Bounce--------------------------------------------------------------------------------
DR Peak RMS Duration Track--------------------------------------------------------------------------------DR8 -0.20 dB -10.74 dB 4:57 01-Rush to JudgmentDR7 -0.20 dB -9.56 dB 4:46 02-Barney's BounceDR9 -0.20 dB -11.03 dB 4:29 03-FractalDR9 -0.20 dB -12.60 dB 6:28 04-CoppermineDR8 -0.20 dB -9.84 dB 6:17 05-Half StepDR9 -0.20 dB -14.98 dB 2:55 06-Reflections of the DayDR6 -0.20 dB -8.18 dB 6:13 07-IntrospectionDR12 -0.20 dB -14.62 dB 5:50 08-Poetic LicenseDR10 -0.20 dB -12.43 dB 5:41 09-Swing ReleaseDR7 -0.20 dB -9.24 dB 5:59 10-Scratch HappyDR11 -0.20 dB -14.52 dB 6:09 11-Northern Soul--------------------------------------------------------------------------------
Number of tracks: 11Official DR value: DR9
Samplerate: 44100 HzChannels: 2Bits per sample: 16Bitrate: 762 kbpsCodec: FLAC================================================================================

Лог проверки качества

-----------------------
DON'T MODIFY THIS FILE
-----------------------
PERFORMER: auCDtect Task Manager, ver. 1.6.0 RC1 build 1.6.0.1Copyright (c) 2008-2010 y-soft. All rights reservedhttp://y-soft.org
ANALYZER: auCDtect: CD records authenticity detector, version 0.8.2Copyright (c) 2004 Oleg Berngardt. All rights reserved.Copyright (c) 2004 Alexander Djourik. All rights reserved.
FILE: 01. Rush to Judgment.flac Size: 34522270 Hash: 147E82A0661281AA8019460997CF1DEA Accuracy: -m0 Conclusion: CDDA 100% Signature: DC5C4517D54FA6744D963DE33EE908BAE51CF97FFILE: 02. Barney's Bounce.flac Size: 30097598 Hash: 1CA83CF249F0FA8614422856F157389F Accuracy: -m0 Conclusion: CDDA 100% Signature: F82FF2A6C670EDA667BFFCBCF6651D3F7993A5B9FILE: 03. Fractal.flac Size: 30462748 Hash: F98DAA0BE7DE1ADC5B4AB3F4E62A5792 Accuracy: -m0 Conclusion: CDDA 100% Signature: D01846CAE7AD714116A0C2869317111028E2C4D1FILE: 04. Coppermine.flac Size: 44095065 Hash: D41DA9B95B69AD812E81FE4F64604006 Accuracy: -m0 Conclusion: CDDA 100% Signature: 07399F76978F5A4C993DE0024A5C05368C1F522FFILE: 05. Half Step.flac Size: 44929712 Hash: F1D4555C9088FC037915A935C7A10818 Accuracy: -m0 Conclusion: CDDA 100% Signature: E87484135E3CE9F196FA3452C666744277AB0B98FILE: 06. Reflections of the Day.flac Size: 13062795 Hash: D51B5043B5593B0C221CD9E3E9C8A189 Accuracy: -m0 Conclusion: CDDA 100% Signature: 49C0FF43CC93B74E8A50159AFDE90310A9F540BCFILE: 07. Introspection.flac Size: 45365197 Hash: 474D2F447A454C35E3642F6571FDCDA7 Accuracy: -m0 Conclusion: CDDA 99% Signature: F4E41E975792459ED2622E46792B3D7EECF5952FFILE: 08. Poetic License.flac Size: 30883700 Hash: CE4B9E03C0F5D9F9A28A0F73D6ED7E5C Accuracy: -m0 Conclusion: CDDA 100% Signature: 7044C1CC82BD739593C6ACD2FE2C2153BEB5DC4AFILE: 09. Swing Release.flac Size: 39273022 Hash: ECC3612B134EBA9EDFB1BBE774B0434C Accuracy: -m0 Conclusion: CDDA 100% Signature: 79826FB9C379F2AC833E7DE469CE5BBE0EA4FA18FILE: 10. Scratch Happy.flac Size: 44195846 Hash: A3A6F7284179B1C3B0E5FE2894C73AC6 Accuracy: -m0 Conclusion: CDDA 100% Signature: FC1B527B4C75D7BA559FA4014BCD1D3D324C1D4EFILE: 11. Northern Soul.flac Size: 35261088 Hash: B7867CD6EA1256A6AB3DD011E935190C Accuracy: -m0 Conclusion: CDDA 100% Signature: 28C40A4E42D51FEFE9B6B77137E413C5753954F8

Об альбоме (сборнике)

released March 23, 2017

Состав

- Chris Pott / bass
- Jason Reddish / drums
- Eckersid Silapaswang / guitar
- Roy Suter / keyboard

If you like the topic, please click share to help develop our site.

To download the file disable ad blocking, and reload the page.

disable adblock How to disable ad blocking?

Download by magnet link 375 MB Download Torrent

Login using:

Similar topics



   
Current time is: 27-Jun 09:40 :: All times are UTC + 3