Logic / One Tribe
Жанр: Jazz / Fusion / Jazz-Rock
Носитель: WEB
Год издания: 2017
Издатель (лейбл): Web Release
Страна исполнителя (группы): Australia
Аудиокодек: FLAC (*.flac)
Тип рипа: tracks
Битрейт аудио: lossless
Продолжительность: 50:34 min
Источник (релизер): bandcamp.com
Наличие сканов в содержимом раздачи:
Треклист:
1. 2010. 7:14
2. Wayne Built. 7:49
3. Gone. 6:44
4. Quartersawn. 6:24
5. Beishan. 5:18
6. One Tribe. 7:19
7. Niger. 5:42
8. Cat Trapped in a Dog's Body. 4:02

DRM.log

foobar2000 1.3.8 / Dynamic Range Meter 1.1.1log date: 2018-02-06 21:24:13
--------------------------------------------------------------------------------Analyzed: Logic / One Tribe--------------------------------------------------------------------------------
DR Peak RMS Duration Track--------------------------------------------------------------------------------DR8 -0.15 dB -10.07 dB 7:15 01-2010DR9 -0.15 dB -10.56 dB 7:50 02-Wayne BuiltDR8 -0.15 dB -10.86 dB 6:45 03-GoneDR8 -0.15 dB -10.00 dB 6:24 04-QuartersawnDR9 -0.15 dB -12.28 dB 5:19 05-BeishanDR8 -0.15 dB -10.47 dB 7:19 06-One TribeDR7 -0.15 dB -8.83 dB 5:42 07-NigerDR8 -0.15 dB -10.06 dB 4:02 08-Cat Trapped in a Dog's Body--------------------------------------------------------------------------------
Number of tracks: 8Official DR value: DR8
Samplerate: 44100 HzChannels: 2Bits per sample: 16Bitrate: 861 kbpsCodec: FLAC================================================================================

Лог проверки качества

-----------------------
DON'T MODIFY THIS FILE
-----------------------
PERFORMER: auCDtect Task Manager, ver. 1.6.0 RC1 build 1.6.0.1Copyright (c) 2008-2010 y-soft. All rights reservedhttp://y-soft.org
ANALYZER: auCDtect: CD records authenticity detector, version 0.8.2Copyright (c) 2004 Oleg Berngardt. All rights reserved.Copyright (c) 2004 Alexander Djourik. All rights reserved.
FILE: 01. 2010.flac Size: 46712866 Hash: 60123A77F5C60D95EEEFC72CCD058EE0 Accuracy: -m0 Conclusion: CDDA 100% Signature: 75C7FA719BFA0715F0FA30133F2F031F1897D39AFILE: 02. Wayne Built.flac Size: 52195332 Hash: 2E979271083AFE517BAD2FF8CFE96544 Accuracy: -m0 Conclusion: CDDA 100% Signature: 59A72C5AD252CD24FD53368134F722401ACC5B25FILE: 03. Gone.flac Size: 41480589 Hash: C00BC529A37568F9AADE2F9967558B9C Accuracy: -m0 Conclusion: CDDA 100% Signature: EA2F0C3AECC5F3AF3B8A604DDBDD22A44C039E14FILE: 04. Quartersawn.flac Size: 39399631 Hash: AE3CC166CC320E0CBB1B300696DAE601 Accuracy: -m0 Conclusion: CDDA 100% Signature: A5941B55CB6F90A59A5B86DA419D49E49CDC54FAFILE: 05. Beishan.flac Size: 30501245 Hash: CA5116ECF56EE262EAEA0CEEBB9CAC5E Accuracy: -m0 Conclusion: CDDA 100% Signature: 269C402016BAFA452FCBD07BE76C264E679450A8FILE: 06. One Tribe.flac Size: 45261341 Hash: 215912501A92F94835ECC57F2B88F916 Accuracy: -m0 Conclusion: CDDA 100% Signature: 536F48FBC6C0F4D152CD4A2FB0C67AE8C22BC56DFILE: 07. Niger.flac Size: 37818221 Hash: 911A837AA82910CCAE9ACD6DEB8E0AF9 Accuracy: -m0 Conclusion: CDDA 100% Signature: D372311DE403D026A811C0E5BE3ECD0032C8988DFILE: 08. Cat Trapped in a Dog's Body.flac Size: 26257881 Hash: 1048E8CBD185CF13DF6BCDDF4B78BAB2 Accuracy: -m0 Conclusion: CDDA 100% Signature: EEBC6345A7F896FFAE2DEF536557DD333CC14D26

Об альбоме (сборнике)

Recorded - Niko Schauble @ Pughouse Studios
Mixed: Hadyn Buxton
Mastered: Nate Wood
released February 24, 2017

Состав

- Tim Wilson / Saxophone
- Glenn Cannon / Guitar
- Dane Alderson / Bass
- Ben Vanderwal / Drums

If you like the topic, please click share to help develop our site.

To download the file disable ad blocking, and reload the page.

disable adblock How to disable ad blocking?

Download by magnet link 307 MB Download Torrent

Login using:

Similar topics



   
Current time is: 23-Apr 15:53 :: All times are UTC + 3