Simon & Garfunkel - Old Friends
Жанр: Folk-Rock
Страна-производитель диска: Austria
Год издания диска: 1997
Издатель (лейбл): Columbia/Legacy
Номер по каталогу: 489447 2
Страна:USA
Аудио кодек: FLAC (*.flac)
Тип рипа: image+.cue
Битрейт аудио: lossless
Продолжительность: 50.19:50+56.26:25+61.26:85
Источник (релизер): собственный CD
Наличие сканов в содержимом раздачи: да

Треклист:

Диск 1:
01. Bleecker Street [0:02:44.37]
02. The Sound Of Silence [0:03:07.00]
03. The Sun Is Burning [0:02:48.25]
04. Wednesday Morning, 3 A.M. [0:02:15.63]
05. He Was My Brother [0:02:50.50]
06. Sparrow [0:02:49.00]
07. Peggy-O [0:02:26.62]
08. Benedictus [0:02:39.38]
09. Somewhere They Can't Find Me [0:02:36.12]
10. We've Got a Groovy Thing Goin' [0:01:59.38]
11. Leaves That Are Green [0:02:22.37]
12. Richard Cory [0:02:57.13]
13. I Am A Rock [0:02:51.25]
14. The Sound Of Silence (Single Version) [0:03:07.00]
15. Homeward Bound [0:02:30.50]
16. Blues Run The Game [0:02:53.25]
17. Kathy's Song [0:03:19.00]
18. April Come She Will [0:01:51.00]
19. Flowers Never Bend With The Rainfall [0:02:10.25]
Диск 2:
01. Patterns [0:02:47.00]
02. Cloudy [0:02:23.25]
03. The Dangling Conversation [0:02:38.50]
04. Scarborough Fair; Canticle [0:03:12.00]
05. The 59th Street Bridge Song (Feelin' Groovy) [0:01:55.50]
06. For Emily, Whenever I May Find Her [0:02:06.37]
07. 7 O'Clock News; Silent Night [0:02:04.63]
08. A Hazy Shade Of Winter [0:02:17.47]
09. At The Zoo [0:02:24.28]
10. A Poem On The Underground Wall [0:04:30.22]
11. Red Rubber Ball [0:02:28.58]
12. Blessed [0:03:39.62]
13. Anji [0:02:29.30]
14. A Church Is Burning [0:03:29.28]
15. Fakin' It [0:03:19.12]
16. Save The Life Of My Child [0:02:49.05]
17. America [0:03:37.33]
18. You Don't Know Where Your Interest Lies [0:02:20.62]
19. Punky's Dilemma [0:02:14.50]
20. Comfort And Joy [0:01:51.13]
21. Star Carol [0:01:46.25]
Диск 3:
01. Mrs. Robinson [0:04:04.37]
02. Old Friends; Bookends [0:03:57.63]
03. Overs [0:03:05.32]
04. A Most Peculiar Man [0:02:35.00]
05. Bye, Bye Love [0:02:45.55]
06. The Boxer [0:05:09.38]
07. Baby Driver [0:03:16.62]
08. Why Don't You Write Me [0:02:46.28]
09. Feuilles-O [0:01:42.40]
10. Keep The Customer Satisfied [0:02:36.32]
11. So Long, Frank Lloyd Wright [0:03:43.13]
12. Song For The Asking [0:01:51.12]
13. Cecilia [0:02:56.63]
14. El Condor Pasa (If I Could) [0:03:08.37]
15. Bridge Over Troubled Water [0:04:54.63]
16. The Only Living Boy In New York [0:04:00.12]
17. Hey, Schoolgirl; Black Slacks [0:01:32.43]
18. That Silver Haired Daddy Of Mine [0:03:27.70]
19. My Little Town [0:03:51.60]

CD, Matrix


EAC CD1

Exact Audio Copy V1.3 from 2. September 2016
EAC extraction logfile from 4. February 2018, 18:16
Simon & Garfunkel / Old Friends [Disc 1]
Used drive : PLEXTOR DVDR PX-L890SA Adapter: 1 ID: 0
Read mode : SecureUtilize accurate stream : YesDefeat audio cache : YesMake use of C2 pointers : No
Read offset correction : 6Overread into Lead-In and Lead-Out : NoFill up missing offset samples with silence : YesDelete leading and trailing silent blocks : NoNull samples used in CRC calculations : YesUsed interface : Native Win32 interface for Win NT & 2000
Used output format : User Defined EncoderSelected bitrate : 1024 kBit/sQuality : HighAdd ID3 tag : NoCommand line compressor : C:\Program Files (x86)\Exact Audio Copy\Flac\flac.exeAdditional command line options : -V -8 -T "Date=%year%" -T "Genre=%genre%" %source%
TOC of the extracted CD
Track | Start | Length | Start sector | End sector --------------------------------------------------------- 1 | 0:00.00 | 2:44.37 | 0 | 12336 2 | 2:44.37 | 3:07.00 | 12337 | 26361 3 | 5:51.37 | 2:48.25 | 26362 | 38986 4 | 8:39.62 | 2:15.63 | 38987 | 49174 5 | 10:55.50 | 2:50.50 | 49175 | 61974 6 | 13:46.25 | 2:49.00 | 61975 | 74649 7 | 16:35.25 | 2:26.62 | 74650 | 85661 8 | 19:02.12 | 2:39.38 | 85662 | 97624 9 | 21:41.50 | 2:36.12 | 97625 | 109336 10 | 24:17.62 | 1:59.38 | 109337 | 118299 11 | 26:17.25 | 2:22.37 | 118300 | 128986 12 | 28:39.62 | 2:57.13 | 128987 | 142274 13 | 31:37.00 | 2:51.25 | 142275 | 155124 14 | 34:28.25 | 3:07.00 | 155125 | 169149 15 | 37:35.25 | 2:30.50 | 169150 | 180449 16 | 40:06.00 | 2:53.25 | 180450 | 193449 17 | 42:59.25 | 3:19.00 | 193450 | 208374 18 | 46:18.25 | 1:51.00 | 208375 | 216699 19 | 48:09.25 | 2:10.25 | 216700 | 226474
Range status and errors
Selected range
Filename H:\AUDIO\MUSIC\1997. Simon & Garfunkel - Old Friends (Columbia-Legacy 489447-2, Austria)\Disc 1\Simon & Garfunkel - Old Friends [Disc 1].wav
Peak level 98.8 % Extraction speed 8.4 X Range quality 100.0 % Test CRC E5BFAA27 Copy CRC E5BFAA27 Copy OK
No errors occurred
AccurateRip summary
Track 1 accurately ripped (confidence 25) [32D427AC] (AR v2)Track 2 accurately ripped (confidence 24) [65466FF8] (AR v2)Track 3 accurately ripped (confidence 24) [76292240] (AR v2)Track 4 accurately ripped (confidence 25) [72CD6B97] (AR v2)Track 5 accurately ripped (confidence 24) [E4CF13D1] (AR v2)Track 6 accurately ripped (confidence 24) [B1C4970E] (AR v2)Track 7 accurately ripped (confidence 24) [22946954] (AR v2)Track 8 accurately ripped (confidence 24) [DA20C5FB] (AR v2)Track 9 accurately ripped (confidence 24) [0E471053] (AR v2)Track 10 accurately ripped (confidence 24) [7650C97D] (AR v2)Track 11 accurately ripped (confidence 24) [A3B796AB] (AR v2)Track 12 accurately ripped (confidence 24) [B93C3C20] (AR v2)Track 13 accurately ripped (confidence 25) [F614B1ED] (AR v2)Track 14 accurately ripped (confidence 25) [5CA360D1] (AR v2)Track 15 accurately ripped (confidence 25) [708B28F4] (AR v2)Track 16 accurately ripped (confidence 25) [05D8D9D2] (AR v2)Track 17 accurately ripped (confidence 25) [66D31F60] (AR v2)Track 18 accurately ripped (confidence 25) [94394213] (AR v2)Track 19 accurately ripped (confidence 24) [BE327D1C] (AR v2)
All tracks accurately ripped
End of status report
==== Log checksum D1FA8156E44C63ACCCEA51C0AEA59D8752091ED503D367383EC74FE4590E023A ====

EAC CD2

Exact Audio Copy V1.3 from 2. September 2016
EAC extraction logfile from 4. February 2018, 18:30
Simon & Garfunkel / Old Friends [Disc 2]
Used drive : PLEXTOR DVDR PX-L890SA Adapter: 1 ID: 0
Read mode : SecureUtilize accurate stream : YesDefeat audio cache : YesMake use of C2 pointers : No
Read offset correction : 6Overread into Lead-In and Lead-Out : NoFill up missing offset samples with silence : YesDelete leading and trailing silent blocks : NoNull samples used in CRC calculations : YesUsed interface : Native Win32 interface for Win NT & 2000
Used output format : User Defined EncoderSelected bitrate : 1024 kBit/sQuality : HighAdd ID3 tag : NoCommand line compressor : C:\Program Files (x86)\Exact Audio Copy\Flac\flac.exeAdditional command line options : -V -8 -T "Date=%year%" -T "Genre=%genre%" %source%
TOC of the extracted CD
Track | Start | Length | Start sector | End sector --------------------------------------------------------- 1 | 0:00.00 | 2:47.00 | 0 | 12524 2 | 2:47.00 | 2:23.25 | 12525 | 23274 3 | 5:10.25 | 2:38.50 | 23275 | 35174 4 | 7:49.00 | 3:12.00 | 35175 | 49574 5 | 11:01.00 | 1:55.50 | 49575 | 58249 6 | 12:56.50 | 2:06.37 | 58250 | 67736 7 | 15:03.12 | 2:04.63 | 67737 | 77099 8 | 17:08.00 | 2:17.47 | 77100 | 87421 9 | 19:25.47 | 2:24.28 | 87422 | 98249 10 | 21:50.00 | 4:30.22 | 98250 | 118521 11 | 26:20.22 | 2:28.58 | 118522 | 129679 12 | 28:49.05 | 3:39.62 | 129680 | 146166 13 | 32:28.67 | 2:29.30 | 146167 | 157371 14 | 34:58.22 | 3:29.28 | 157372 | 173074 15 | 38:27.50 | 3:19.12 | 173075 | 188011 16 | 41:46.62 | 2:49.05 | 188012 | 200691 17 | 44:35.67 | 3:37.33 | 200692 | 216999 18 | 48:13.25 | 2:20.62 | 217000 | 227561 19 | 50:34.12 | 2:14.50 | 227562 | 237661 20 | 52:48.62 | 1:51.13 | 237662 | 245999 21 | 54:40.00 | 1:46.25 | 246000 | 253974
Range status and errors
Selected range
Filename H:\AUDIO\MUSIC\1997. Simon & Garfunkel - Old Friends (Columbia-Legacy 489447-2, Austria)\Disc 2\Simon & Garfunkel - Old Friends [Disc 2].wav
Peak level 98.8 % Extraction speed 8.7 X Range quality 100.0 % Test CRC F2606B22 Copy CRC F2606B22 Copy OK
No errors occurred
AccurateRip summary
Track 1 accurately ripped (confidence 42) [F2562ECD] (AR v2)Track 2 accurately ripped (confidence 42) [278CA7A4] (AR v2)Track 3 accurately ripped (confidence 42) [6AD470D8] (AR v2)Track 4 accurately ripped (confidence 42) [4BF978F5] (AR v2)Track 5 accurately ripped (confidence 42) [951AB5EA] (AR v2)Track 6 accurately ripped (confidence 42) [7A246A4C] (AR v2)Track 7 accurately ripped (confidence 42) [E2CE4214] (AR v2)Track 8 accurately ripped (confidence 42) [AB2F5805] (AR v2)Track 9 accurately ripped (confidence 42) [801456BD] (AR v2)Track 10 accurately ripped (confidence 42) [50C41680] (AR v2)Track 11 accurately ripped (confidence 42) [B7649377] (AR v2)Track 12 accurately ripped (confidence 42) [F27FD692] (AR v2)Track 13 accurately ripped (confidence 42) [D4A83E33] (AR v2)Track 14 accurately ripped (confidence 42) [B98FB122] (AR v2)Track 15 accurately ripped (confidence 42) [BD209EA2] (AR v2)Track 16 accurately ripped (confidence 42) [BEE335DC] (AR v2)Track 17 accurately ripped (confidence 42) [EBE8037B] (AR v2)Track 18 accurately ripped (confidence 42) [99F08E84] (AR v2)Track 19 accurately ripped (confidence 42) [331AAB25] (AR v2)Track 20 accurately ripped (confidence 42) [B59DD25B] (AR v2)Track 21 accurately ripped (confidence 42) [0269F249] (AR v2)
All tracks accurately ripped
End of status report
==== Log checksum 49EA355BECC526F3374CD9D95E23D84AACC4EA59F7BB37BA13143C749FC66E84 ====

EAC CD3

Exact Audio Copy V1.3 from 2. September 2016
EAC extraction logfile from 4. February 2018, 18:50
Simon & Garfunkel / Old Friends [Disc 3]
Used drive : PLEXTOR DVDR PX-L890SA Adapter: 1 ID: 0
Read mode : SecureUtilize accurate stream : YesDefeat audio cache : YesMake use of C2 pointers : No
Read offset correction : 6Overread into Lead-In and Lead-Out : NoFill up missing offset samples with silence : YesDelete leading and trailing silent blocks : NoNull samples used in CRC calculations : YesUsed interface : Native Win32 interface for Win NT & 2000
Used output format : User Defined EncoderSelected bitrate : 1024 kBit/sQuality : HighAdd ID3 tag : NoCommand line compressor : C:\Program Files (x86)\Exact Audio Copy\Flac\flac.exeAdditional command line options : -V -8 -T "Date=%year%" -T "Genre=%genre%" %source%
TOC of the extracted CD
Track | Start | Length | Start sector | End sector --------------------------------------------------------- 1 | 0:00.00 | 4:04.37 | 0 | 18336 2 | 4:04.37 | 3:57.63 | 18337 | 36174 3 | 8:02.25 | 3:05.32 | 36175 | 50081 4 | 11:07.57 | 2:35.00 | 50082 | 61706 5 | 13:42.57 | 2:45.55 | 61707 | 74136 6 | 16:28.37 | 5:09.38 | 74137 | 97349 7 | 21:38.00 | 3:16.62 | 97350 | 112111 8 | 24:54.62 | 2:46.28 | 112112 | 124589 9 | 27:41.15 | 1:42.40 | 124590 | 132279 10 | 29:23.55 | 2:36.32 | 132280 | 144011 11 | 32:00.12 | 3:43.13 | 144012 | 160749 12 | 35:43.25 | 1:51.12 | 160750 | 169086 13 | 37:34.37 | 2:56.63 | 169087 | 182349 14 | 40:31.25 | 3:08.37 | 182350 | 196486 15 | 43:39.62 | 4:54.63 | 196487 | 218599 16 | 48:34.50 | 4:00.12 | 218600 | 236611 17 | 52:34.62 | 1:32.43 | 236612 | 243554 18 | 54:07.30 | 3:27.70 | 243555 | 259149 19 | 57:35.25 | 3:51.60 | 259150 | 276534
Range status and errors
Selected range
Filename H:\AUDIO\MUSIC\1997. Simon & Garfunkel - Old Friends (Columbia-Legacy 489447-2, Austria)\Disc 3\Simon & Garfunkel - Old Friends [Disc 3].wav
Peak level 98.8 % Extraction speed 8.9 X Range quality 100.0 % Test CRC 05FB60F8 Copy CRC 05FB60F8 Copy OK
No errors occurred
AccurateRip summary
Track 1 accurately ripped (confidence 79) [F3C797D3] (AR v2)Track 2 accurately ripped (confidence 80) [013791C5] (AR v2)Track 3 accurately ripped (confidence 81) [105694C8] (AR v2)Track 4 accurately ripped (confidence 81) [233BD381] (AR v2)Track 5 accurately ripped (confidence 83) [65B7C156] (AR v2)Track 6 accurately ripped (confidence 79) [2AA73BD9] (AR v2)Track 7 accurately ripped (confidence 78) [531536CE] (AR v2)Track 8 accurately ripped (confidence 78) [28C74C70] (AR v2)Track 9 accurately ripped (confidence 81) [6827071D] (AR v2)Track 10 accurately ripped (confidence 79) [6FEC11AE] (AR v2)Track 11 accurately ripped (confidence 77) [5454F469] (AR v2)Track 12 accurately ripped (confidence 79) [A8CDE426] (AR v2)Track 13 accurately ripped (confidence 80) [A8976003] (AR v2)Track 14 accurately ripped (confidence 78) [4F839FAD] (AR v2)Track 15 accurately ripped (confidence 80) [40201F05] (AR v2)Track 16 accurately ripped (confidence 79) [0FFF99BD] (AR v2)Track 17 accurately ripped (confidence 82) [9B7ADDF5] (AR v2)Track 18 accurately ripped (confidence 82) [8610465C] (AR v2)Track 19 accurately ripped (confidence 82) [BE853A9C] (AR v2)
All tracks accurately ripped
End of status report
==== Log checksum 58D866DF9FC9DAE5A0BA70A82A49B1F1849634849754734234E852DD95B04674 ====

If you like the topic, please click share to help develop our site.

To download the file disable ad blocking, and reload the page.

disable adblock How to disable ad blocking?

Download by magnet link 1.44 GB Download Torrent

Login using:

Similar topics



   
Current time is: 23-Apr 14:52 :: All times are UTC + 3