Behemoth / Amen (Legacy Magazine Promo CD)
Жанр: Black/Death Metal
Носитель: CDS
Страна-производитель диска (релиза): Poland
Год издания: 2017
Издатель (лейбл): Legacy Magazine/Nuclear Blast
Номер по каталогу: N/A
Страна исполнителя (группы): Poland
Аудиокодек: FLAC (*.flac)
Тип рипа: image+.cue
Битрейт аудио: lossless
Продолжительность: 26:25
Источник (релизер): ungern666
Наличие сканов в содержимом раздачи: да
Треклист:
01. Ludzie Wschodu (Siekiera-Cover) 04:14
02. Chant For Ezkaton 2000 E.V. (2008 version) 05:13
03. Qadosh 05:00
04. Furor Divinus (Live) 03:22
05. Messe Noir (Live) 04:41
06. Amen (Live) 03:55
Songs 1-3 taken from "The Satanist" (Japan Version).
Songs 4-6 taken from "Messe Noir".

Лог создания рипа

Exact Audio Copy V1.1 from 23. June 2015
EAC extraction logfile from 6. February 2018, 16:48
Behemoth / Amen
Used drive : HP DVD Writer 1170d Adapter: 1 ID: 1
Read mode : SecureUtilize accurate stream : YesDefeat audio cache : YesMake use of C2 pointers : No
Read offset correction : 6Overread into Lead-In and Lead-Out : NoFill up missing offset samples with silence : YesDelete leading and trailing silent blocks : NoNull samples used in CRC calculations : YesUsed interface : Native Win32 interface for Win NT & 2000
Used output format : User Defined EncoderSelected bitrate : 1024 kBit/sQuality : HighAdd ID3 tag : NoCommand line compressor : C:\Program Files (x86)\Exact Audio Copy\Flac\flac.exeAdditional command line options : -V -8 -T "Date=%year%" -T "Genre=%genre%" %source%
TOC of the extracted CD
Track | Start | Length | Start sector | End sector --------------------------------------------------------- 1 | 0:00.00 | 4:14.25 | 0 | 19074 2 | 4:14.25 | 5:13.37 | 19075 | 42586 3 | 9:27.62 | 5:00.25 | 42587 | 65111 4 | 14:28.12 | 3:21.58 | 65112 | 80244 5 | 17:49.70 | 4:41.16 | 80245 | 101335 6 | 22:31.11 | 3:54.38 | 101336 | 118923
Range status and errors
Selected range
Filename C:\EAC\ungern666\Behemoth - Amen.wav
Peak level 96.6 % Extraction speed 5.7 X Range quality 99.9 % Test CRC 4268E414 Copy CRC 4268E414 Copy OK
No errors occurred
AccurateRip summary
Track 1 not present in databaseTrack 2 not present in databaseTrack 3 not present in databaseTrack 4 not present in databaseTrack 5 not present in databaseTrack 6 not present in database
None of the tracks are present in the AccurateRip database
End of status report
---- CUETools DB Plugin V2.1.6
[CTDB TOCID: 9wiYSWdEsHUaGDxJXBkDJWTiL70-] foundSubmit result: 9wiYSWdEsHUaGDxJXBkDJWTiL70- has been confirmedTrack | CTDB Status 1 | (11/11) Accurately ripped 2 | (11/11) Accurately ripped 3 | (11/11) Accurately ripped 4 | (11/11) Accurately ripped 5 | (11/11) Accurately ripped 6 | (11/11) Accurately ripped
==== Log checksum B697EBDC29D79AB7E51E7C5197B82C2BA660620CE31BAE4BAD6F625E4B881388 ====
- -Материал предназначен для ознакомления!

If you like the topic, please click share to help develop our site.

To download the file disable ad blocking, and reload the page.

disable adblock How to disable ad blocking?

Download by magnet link 192 MB Download Torrent

Login using:

Similar topics

(Black | Death Metal) Hedonihil - I - 2019, MP3, 320 kbps
 74 MB   0 | 0   20-Apr-19 03:18   0


   
Current time is: 23-Apr 15:05 :: All times are UTC + 3