Zakk Wylde/Black Label Society - Официальная дискография (25CD)
Жанр: Heavy/Southerh Metal
Страны-производители дисков: (17 CD) | (6 CD) | (3 CD) | (1 CD)
Аудио кодек: FLAC (*.flac)
Тип рипа: image+.cue
Битрейт аудио: lossless
Источник: Оригинальные диски из личной коллекции
Наличие сканов в содержимом раздачи: да (PNG 300dpi)
BLACK LABEL SOCIETY:

1998 - Sonic Brew

1998 - Sonic Brew (Japan, Mercury/PolyGram K.K. PHCR-81)

Страна-производитель диска: Japan
Год издания диска: 1998
Издатель (лейбл): Mercury/PolyGram K.K.
Номер по каталогу: PHCR-81
Аудио кодек: FLAC (*.flac)
Тип рипа: image+.cue
Битрейт аудио: lossless
Продолжительность: 0:55:19
Источник: Оригинальный диск из личной коллекции
Наличие сканов в содержимом раздачи: да (PNG 300dpi)
Треклист:
1. Bored To Tears - 4:30
2. The Rose Petalled Garden - 4:56
3. Hey You (Batch Of Lies) - 3:53
4. Born To Lose - 4:23
5. Peddlers Of Death - 4:34
6. Mother Mary - 4:27
7. Beneath The Tree - 4:09
8. Low Down - 5:04
9. T.A.Z. - 1:57
10. Black Pearl - 3:28
11. World Of Trouble - 5:19
12. Spoke In The Wheel - 4:14
13. The Beginning... At Last - 4:25

Лог создания рипа

Exact Audio Copy V1.0 beta 3 from 29. August 2011
EAC extraction logfile from 2. February 2012, 21:34
Black Label Society / Sonic Brew (Japanese PHCR-81)
Used drive : PIONEER DVD-RW DVR-219L Adapter: 2 ID: 0
Read mode : SecureUtilize accurate stream : YesDefeat audio cache : YesMake use of C2 pointers : No
Read offset correction : 6Overread into Lead-In and Lead-Out : NoFill up missing offset samples with silence : YesDelete leading and trailing silent blocks : NoNull samples used in CRC calculations : YesUsed interface : Native Win32 interface for Win NT & 2000
Used output format : Internal WAV RoutinesSample format : 44.100 Hz; 16 Bit; Stereo
TOC of the extracted CD
Track | Start | Length | Start sector | End sector --------------------------------------------------------- 1 | 0:00.00 | 4:29.65 | 0 | 20239 2 | 4:29.65 | 4:55.52 | 20240 | 42416 3 | 9:25.42 | 3:53.20 | 42417 | 59911 4 | 13:18.62 | 4:23.35 | 59912 | 79671 5 | 17:42.22 | 4:33.60 | 79672 | 100206 6 | 22:16.07 | 4:26.68 | 100207 | 120224 7 | 26:43.00 | 4:09.35 | 120225 | 138934 8 | 30:52.35 | 5:04.17 | 138935 | 161751 9 | 35:56.52 | 1:56.40 | 161752 | 170491 10 | 37:53.17 | 3:27.63 | 170492 | 186079 11 | 41:21.05 | 5:19.22 | 186080 | 210026 12 | 46:40.27 | 4:13.65 | 210027 | 229066 13 | 50:54.17 | 4:24.73 | 229067 | 248939
Range status and errors
Selected range
Filename F:\.www.AvaxHome.ru\Black Label Society - Sonic Brew (Japanese PHCR-81).wav
Peak level 99.9 % Extraction speed 7.7 X Range quality 100.0 % Test CRC 9AB80521 Copy CRC 9AB80521 Copy OK
No errors occurred
AccurateRip summary
Track 1 accurately ripped (confidence 3) [9966DBEF] (AR v1)Track 2 accurately ripped (confidence 3) [E1A7923F] (AR v1)Track 3 accurately ripped (confidence 2) [8D6A22BC] (AR v1)Track 4 accurately ripped (confidence 3) [132DB6DA] (AR v1)Track 5 accurately ripped (confidence 3) [648BC6B3] (AR v1)Track 6 accurately ripped (confidence 3) [424EA033] (AR v1)Track 7 accurately ripped (confidence 3) [4414D082] (AR v1)Track 8 accurately ripped (confidence 3) [8348CFB1] (AR v1)Track 9 accurately ripped (confidence 3) [32A2C2AE] (AR v1)Track 10 accurately ripped (confidence 3) [BBAF9FE1] (AR v1)Track 11 accurately ripped (confidence 3) [699BF367] (AR v1)Track 12 accurately ripped (confidence 3) [778A7C3D] (AR v1)Track 13 accurately ripped (confidence 3) [C10A7263] (AR v1)
All tracks accurately ripped
End of status report
==== Log checksum B92197487F224AD92F97A63DC15D47FE12040DA5F3A73238721CAFDC01A167B6 ====

1998 - Sonic Brew (2009, Armoury Records ARMCD512)

Страна-производитель диска: Germany
Год издания диска: 2009
Издатель (лейбл): Armoury Records
Номер по каталогу: ARMCD512 (GAS 0000512 AMY)
Аудио кодек: FLAC (*.flac)
Тип рипа: image+.cue
Битрейт аудио: lossless
Продолжительность: 1:06:41
Источник: Оригинальный диск из личной коллекции
Наличие сканов в содержимом раздачи: да (PNG 300dpi)
Треклист:
1. Bored To Tears - 4:28
2. The Rose Petalled Garden - 5:00
3. Hey You (Batch Of Lies) - 3:49
4. Born To Lose - 4:23
5. Peddlers Of Death - 4:34
6. Mother Mary - 4:27
7. Beneath The Tree - 4:37
8. Low Down - 4:36
9. T.A.Z. - 1:57
10. Lost My Better Half - 4:24
11. Black Pearl - 3:28
12. World Of Trouble - 5:20
13. Spoke In The Wheel - 4:14
14. The Beginning... At Last - 4:27
15. No More Tears - 6:57

Лог создания рипа


Exact Audio Copy V1.0 beta 3 from 29. August 2011
EAC extraction logfile from 2. November 2013, 11:02
Black Label Society / Sonic Brew (2009, Armoury Records, ARMCD512)
Used drive : PIONEER DVD-RW DVR-219L Adapter: 1 ID: 0
Read mode : Secure
Utilize accurate stream : Yes
Defeat audio cache : Yes
Make use of C2 pointers : No
Read offset correction : 6
Overread into Lead-In and Lead-Out : No
Fill up missing offset samples with silence : Yes
Delete leading and trailing silent blocks : No
Null samples used in CRC calculations : Yes
Used interface : Native Win32 interface for Win NT & 2000
Used output format : Internal WAV Routines
Sample format : 44.100 Hz; 16 Bit; Stereo
TOC of the extracted CD
Track | Start | Length | Start sector | End sector
---------------------------------------------------------
1 | 0:00.00 | 4:28.14 | 0 | 20113
2 | 4:28.14 | 4:59.67 | 20114 | 42605
3 | 9:28.06 | 3:48.51 | 42606 | 59756
4 | 13:16.57 | 4:23.04 | 59757 | 79485
5 | 17:39.61 | 4:33.66 | 79486 | 100026
6 | 22:13.52 | 4:27.00 | 100027 | 120051
7 | 26:40.52 | 4:37.22 | 120052 | 140848
8 | 31:17.74 | 4:36.32 | 140849 | 161580
9 | 35:54.31 | 1:56.39 | 161581 | 170319
10 | 37:50.70 | 4:24.36 | 170320 | 190155
11 | 42:15.31 | 3:27.60 | 190156 | 205740
12 | 45:43.16 | 5:20.06 | 205741 | 229746
13 | 51:03.22 | 4:13.69 | 229747 | 248790
14 | 55:17.16 | 4:26.50 | 248791 | 268790
15 | 59:43.66 | 6:57.09 | 268791 | 300074
Range status and errors
Selected range
Filename D:\.www.AvaxHome.ru\Black Label Society - Sonic Brew (2009, Armoury Records, ARMCD512).wav
Peak level 98.8 %
Extraction speed 7.9 X
Range quality 100.0 %
Test CRC 840277BD
Copy CRC 840277BD
Copy OK
No errors occurred
AccurateRip summary
Track 1 accurately ripped (confidence 7) [8A097570] (AR v2)
Track 2 accurately ripped (confidence 7) [F791ACDF] (AR v2)
Track 3 accurately ripped (confidence 7) [B340EF2A] (AR v2)
Track 4 accurately ripped (confidence 8) [256AE84B] (AR v2)
Track 5 accurately ripped (confidence 7) [ED39FC76] (AR v2)
Track 6 accurately ripped (confidence 7) [AB86A10F] (AR v2)
Track 7 accurately ripped (confidence 7) [F20F59C3] (AR v2)
Track 8 accurately ripped (confidence 7) [820073C8] (AR v2)
Track 9 accurately ripped (confidence 7) [46B60523] (AR v2)
Track 10 accurately ripped (confidence 7) [48C53F03] (AR v2)
Track 11 accurately ripped (confidence 7) [0A196221] (AR v2)
Track 12 accurately ripped (confidence 7) [905CBC9E] (AR v2)
Track 13 accurately ripped (confidence 7) [0AB2B35A] (AR v2)
Track 14 accurately ripped (confidence 7) [91E0DAC9] (AR v2)
Track 15 accurately ripped (confidence 7) [E96752A3] (AR v2)
All tracks accurately ripped
End of status report
---- CUETools DB Plugin V2.1.4
[CTDB TOCID: c9J2HXuYsTXwvHX5SLM8vRBb3Z0-] found
Submit result: c9J2HXuYsTXwvHX5SLM8vRBb3Z0- has been confirmed
Track | CTDB Status
1 | (8/8) Accurately ripped
2 | (8/8) Accurately ripped
3 | (8/8) Accurately ripped
4 | (8/8) Accurately ripped
5 | (8/8) Accurately ripped
6 | (8/8) Accurately ripped
7 | (8/8) Accurately ripped
8 | (8/8) Accurately ripped
9 | (8/8) Accurately ripped
10 | (8/8) Accurately ripped
11 | (8/8) Accurately ripped
12 | (8/8) Accurately ripped
13 | (8/8) Accurately ripped
14 | (8/8) Accurately ripped
15 | (8/8) Accurately ripped
==== Log checksum 3F7DEC3DEE93FB1ADE0758D33266D6E0E9889AB51282C9700A548ED64B4A220C ====

2000 - Stronger Than Death

Страна-производитель диска: Japan
Год издания диска: 2000
Издатель (лейбл): Mercury/Universal Music K.K.
Номер по каталогу: PHCW-1072
Аудио кодек: FLAC (*.flac)
Тип рипа: image+.cue
Битрейт аудио: lossless
Продолжительность: 0:55:55
Источник: Оригинальный диск из личной коллекции
Наличие сканов в содержимом раздачи: да (PNG 300dpi)
Треклист:
1. All For You - 3:59
2. Phoney Smiles And Fake Hellos - 4:16
3. 13 Years Of Grief - 4:12
4. Rust - 6:09
5. Superterrorizer - 5:34
6. Counterfeit God - 4:18
7. Ain't Life Grand - 4:39
8. Just Killin' Time - 4:56
9. Bullet Inside Your Head (Japanese Bonus Track) - 4:55
10. Stronger Than Death - 4:52
11. Love Reign Down - 8:05

Лог создания рипа

Exact Audio Copy V1.0 beta 3 from 29. August 2011
EAC extraction logfile from 2. February 2012, 18:44
Black Label Society / Stronger Than Death (Japanese PHCW-1072)
Used drive : PIONEER DVD-RW DVR-219L Adapter: 2 ID: 0
Read mode : SecureUtilize accurate stream : YesDefeat audio cache : YesMake use of C2 pointers : No
Read offset correction : 6Overread into Lead-In and Lead-Out : NoFill up missing offset samples with silence : YesDelete leading and trailing silent blocks : NoNull samples used in CRC calculations : YesUsed interface : Native Win32 interface for Win NT & 2000
Used output format : Internal WAV RoutinesSample format : 44.100 Hz; 16 Bit; Stereo
TOC of the extracted CD
Track | Start | Length | Start sector | End sector --------------------------------------------------------- 1 | 0:00.00 | 3:59.27 | 0 | 17951 2 | 3:59.27 | 4:15.73 | 17952 | 37149 3 | 8:15.25 | 4:11.47 | 37150 | 56021 4 | 12:26.72 | 6:08.55 | 56022 | 83676 5 | 18:35.52 | 5:33.55 | 83677 | 108706 6 | 24:09.32 | 4:18.35 | 108707 | 128091 7 | 28:27.67 | 4:39.20 | 128092 | 149036 8 | 33:07.12 | 4:56.15 | 149037 | 171251 9 | 38:03.27 | 4:54.68 | 171252 | 193369 10 | 42:58.20 | 4:52.32 | 193370 | 215301 11 | 47:50.52 | 8:04.38 | 215302 | 251639
Range status and errors
Selected range
Filename F:\.www.AvaxHome.ru\Black Label Society - Stronger Than Death (Japanese PHCW-1072).wav
Peak level 100.0 % Extraction speed 7.7 X Range quality 99.9 % Test CRC A8937D50 Copy CRC A8937D50 Copy OK
No errors occurred
AccurateRip summary
Track 1 accurately ripped (confidence 4) [B987FF66] (AR v1)Track 2 accurately ripped (confidence 4) [8D280373] (AR v1)Track 3 accurately ripped (confidence 4) [B98AA871] (AR v1)Track 4 accurately ripped (confidence 4) [6D6592DE] (AR v1)Track 5 accurately ripped (confidence 4) [B443F4B6] (AR v1)Track 6 accurately ripped (confidence 4) [E318F6E1] (AR v1)Track 7 accurately ripped (confidence 4) [66C04F7A] (AR v1)Track 8 accurately ripped (confidence 4) [7CBFF279] (AR v1)Track 9 accurately ripped (confidence 4) [D88D6027] (AR v1)Track 10 accurately ripped (confidence 4) [D1F0BF70] (AR v1)Track 11 accurately ripped (confidence 4) [6F6E719B] (AR v1)
All tracks accurately ripped
End of status report
==== Log checksum C25F414ABFA73F3FF7239CD4A9FB5141384AD48F9D6FFCF6A3F07AD7D4DE8F22 ====

2001 - Alcohol Fueled F#ckin Brewtality Live!!

2001 - Alcohol Fueled F#ckin Brewtality Live!! (Japan, Universal UICE-1008)

Страна-производитель диска: Japan
Год издания диска: 2001
Издатель (лейбл): Universal Music Company
Номер по каталогу: UICE-1008
Аудио кодек: FLAC (*.flac)
Тип рипа: image+.cue
Битрейт аудио: lossless
Продолжительность: 1:15:29
Источник: Оригинальный диск из личной коллекции
Наличие сканов в содержимом раздачи: да (PNG 300dpi)
Треклист:
1. Lowdown - 5:24
2. 13 Years Of Grief - 4:07
3. Stronger Than Death - 5:01
4. All For You - 3:56
5. Superterrorizer - 5:19
6. Phoney Smiles Fake Hellos - 4:33
7. Lost My Better Half - 4:44
8. Bored To Tears - 4:07
9. A.N.D.R.O.T.A.Z. - 4:26
10. Born To Booze - 4:42
11. World Of Trouble - 5:59
12. No More Tears - 9:15
13. The Beginning... At Last - 6:08
14. Heart Of Gold (Japanese Bonus Track) - 3:15
15. The Beginning... At Last (Acoustic Version) (Japanese Bonus Track) - 4:33

Лог создания рипа

Exact Audio Copy V1.0 beta 3 from 29. August 2011
EAC extraction logfile from 7. October 2013, 19:25
Black Label Society / Alcohol Fueled Fuckin Brewtality (Japan UICE-1008)
Used drive : PIONEER DVD-RW DVR-219L Adapter: 1 ID: 0
Read mode : SecureUtilize accurate stream : YesDefeat audio cache : YesMake use of C2 pointers : No
Read offset correction : 6Overread into Lead-In and Lead-Out : NoFill up missing offset samples with silence : YesDelete leading and trailing silent blocks : NoNull samples used in CRC calculations : YesUsed interface : Native Win32 interface for Win NT & 2000
Used output format : Internal WAV RoutinesSample format : 44.100 Hz; 16 Bit; Stereo
TOC of the extracted CD
Track | Start | Length | Start sector | End sector --------------------------------------------------------- 1 | 0:00.00 | 5:23.50 | 0 | 24274 2 | 5:23.50 | 4:06.67 | 24275 | 42791 3 | 9:30.42 | 5:00.53 | 42792 | 65344 4 | 14:31.20 | 3:55.50 | 65345 | 83019 5 | 18:26.70 | 5:19.22 | 83020 | 106966 6 | 23:46.17 | 4:33.25 | 106967 | 127466 7 | 28:19.42 | 4:44.13 | 127467 | 148779 8 | 33:03.55 | 4:07.15 | 148780 | 167319 9 | 37:10.70 | 4:26.05 | 167320 | 187274 10 | 41:37.00 | 4:42.12 | 187275 | 208436 11 | 46:19.12 | 5:59.03 | 208437 | 235364 12 | 52:18.15 | 9:15.05 | 235365 | 276994 13 | 61:33.20 | 6:08.17 | 276995 | 304611 14 | 67:41.37 | 3:15.25 | 304612 | 319261 15 | 70:56.62 | 4:32.38 | 319262 | 339699
Range status and errors
Selected range
Filename D:\.www.AvaxHome.ru\Black Label Society - Alcohol Fueled Fuckin Brewtality (Japan UICE-1008).wav
Peak level 98.8 % Extraction speed 8.3 X Range quality 100.0 % Test CRC EC2D7D64 Copy CRC EC2D7D64 Copy OK
No errors occurred
AccurateRip summary
Track 1 accurately ripped (confidence 2) [75EBD082] (AR v2)Track 2 accurately ripped (confidence 2) [155E77DC] (AR v2)Track 3 accurately ripped (confidence 2) [6A50E47E] (AR v2)Track 4 accurately ripped (confidence 2) [69B9D8E5] (AR v2)Track 5 accurately ripped (confidence 2) [CE91523A] (AR v2)Track 6 accurately ripped (confidence 2) [F04947D3] (AR v2)Track 7 accurately ripped (confidence 2) [523B453C] (AR v2)Track 8 accurately ripped (confidence 2) [9CEF3232] (AR v2)Track 9 accurately ripped (confidence 2) [33933B8E] (AR v2)Track 10 accurately ripped (confidence 2) [03336AB6] (AR v2)Track 11 accurately ripped (confidence 2) [EBD865C9] (AR v2)Track 12 accurately ripped (confidence 2) [19B4D1EB] (AR v2)Track 13 accurately ripped (confidence 2) [08188F10] (AR v2)Track 14 accurately ripped (confidence 2) [F6B904CC] (AR v2)Track 15 accurately ripped (confidence 2) [02918C57] (AR v2)
All tracks accurately ripped
End of status report
---- CUETools DB Plugin V2.1.3
[CTDB TOCID: 055KYu3rD.TM05.4IpLkg0rU8cM-] found, Submit result: 055KYu3rD.TM05.4IpLkg0rU8cM- has been confirmed[76318435] (1/1) Accurately ripped

2001 - Alcohol Fueled F#ckin Brewtality Live!! +5 (2CD) (2009, Germany, Armoury Records, ARMCD514

Страна-производитель диска: Germany
Год издания диска: 2009
Издатель (лейбл): Armoury Records
Номер по каталогу: ARMCD514
Аудио кодек: FLAC (*.flac)
Тип рипа: image+.cue
Битрейт аудио: lossless
Продолжительность: 1:07:40 + 0:24:08
Источник: Оригинальный диск из личной коллекции
Наличие сканов в содержимом раздачи: да (PNG 300dpi)
CD1 Треклист:
1. Lowdown - 5:24
2. 13 Years of Grief - 4:07
3. Stronger Than Death - 5:01
4. All for You - 3:56
5. Superterrorizer - 5:19
6. Phoney Smiles - Fake Hellos - 4:34
7. Lost My Better Half - 4:44
8. Bored to Tears - 4:07
9. A.N.D.R.O.T.A.Z - 4:27
10. Born to Booze - 4:42
11. World of Trouble - 5:59
12. No More Tears - 9:15
13. The Begining... At Last - 6:07
CD2 Треклист:
1. Heart Of Gold - 3:16
2. Snowblind - 7:00
3. Like A Bird - 4:37
4. Blood In The Wall - 4:45
5. The Beginning... At Last - 4:30

CD1 Лог создания рипа

Exact Audio Copy V1.0 beta 3 from 29. August 2011
EAC extraction logfile from 2. November 2013, 11:46
Black Label Society / Alcohol Fueled F#ckin' Brewtality Live!! +5 (CD1)
Used drive : PIONEER DVD-RW DVR-219L Adapter: 1 ID: 0
Read mode : SecureUtilize accurate stream : YesDefeat audio cache : YesMake use of C2 pointers : No
Read offset correction : 6Overread into Lead-In and Lead-Out : NoFill up missing offset samples with silence : YesDelete leading and trailing silent blocks : NoNull samples used in CRC calculations : YesUsed interface : Native Win32 interface for Win NT & 2000
Used output format : Internal WAV RoutinesSample format : 44.100 Hz; 16 Bit; Stereo
TOC of the extracted CD
Track | Start | Length | Start sector | End sector --------------------------------------------------------- 1 | 0:00.00 | 5:23.67 | 0 | 24291 2 | 5:23.67 | 4:06.65 | 24292 | 42806 3 | 9:30.57 | 5:00.55 | 42807 | 65361 4 | 14:31.37 | 3:55.52 | 65362 | 83038 5 | 18:27.14 | 5:19.24 | 83039 | 106987 6 | 23:46.38 | 4:33.39 | 106988 | 127501 7 | 28:20.02 | 4:43.72 | 127502 | 148798 8 | 33:03.74 | 4:06.69 | 148799 | 167317 9 | 37:10.68 | 4:26.40 | 167318 | 187307 10 | 41:37.33 | 4:42.05 | 187308 | 208462 11 | 46:19.38 | 5:59.00 | 208463 | 235387 12 | 52:18.38 | 9:14.72 | 235388 | 277009 13 | 61:33.35 | 6:06.47 | 277010 | 304506
Range status and errors
Selected range
Filename D:\.www.AvaxHome.ru\Black Label Society - Alcohol Fueled F#ckin' Brewtality Live!! +5 (CD1).wav
Peak level 98.8 % Extraction speed 7.9 X Range quality 100.0 % Test CRC 807BCB56 Copy CRC 807BCB56 Copy OK
No errors occurred
AccurateRip summary
Track 1 cannot be verified as accurate (confidence 5) [C8D9D267], AccurateRip returned [56CB0276] (AR v2)Track 2 cannot be verified as accurate (confidence 5) [115E5CA9], AccurateRip returned [92071929] (AR v2)Track 3 cannot be verified as accurate (confidence 5) [638B34CA], AccurateRip returned [D136D22D] (AR v2)Track 4 cannot be verified as accurate (confidence 5) [D28A657E], AccurateRip returned [22ACDE61] (AR v2)Track 5 cannot be verified as accurate (confidence 5) [BA489FC9], AccurateRip returned [A7315DEF] (AR v2)Track 6 cannot be verified as accurate (confidence 5) [759E09AB], AccurateRip returned [C0FB85E1] (AR v2)Track 7 cannot be verified as accurate (confidence 5) [77257503], AccurateRip returned [BA7348B8] (AR v2)Track 8 cannot be verified as accurate (confidence 5) [2AA811FF], AccurateRip returned [DD1D0664] (AR v2)Track 9 cannot be verified as accurate (confidence 5) [B313CD8A], AccurateRip returned [3956624F] (AR v2)Track 10 cannot be verified as accurate (confidence 5) [B174787B], AccurateRip returned [FB83FE66] (AR v2)Track 11 cannot be verified as accurate (confidence 5) [AC9E1589], AccurateRip returned [827387D0] (AR v2)Track 12 cannot be verified as accurate (confidence 5) [ABAFFE49], AccurateRip returned [CB5D8EAC] (AR v2)Track 13 cannot be verified as accurate (confidence 5) [BB6CBF91], AccurateRip returned [51CCD73F] (AR v2)
No tracks could be verified as accurateYou may have a different pressing from the one(s) in the database
End of status report
---- CUETools DB Plugin V2.1.4
[CTDB TOCID: UFAcGW9FAh8LtYgmAUh5GKapEBE-] foundSubmit result: UFAcGW9FAh8LtYgmAUh5GKapEBE- has been confirmedTrack | CTDB Status 1 | (4/4) Accurately ripped 2 | (4/4) Accurately ripped 3 | (4/4) Accurately ripped 4 | (4/4) Accurately ripped 5 | (4/4) Accurately ripped 6 | (4/4) Accurately ripped 7 | (4/4) Accurately ripped 8 | (4/4) Accurately ripped 9 | (4/4) Accurately ripped 10 | (4/4) Accurately ripped 11 | (4/4) Accurately ripped 12 | (4/4) Accurately ripped 13 | (4/4) Accurately ripped
==== Log checksum D4ED222B513568346C547112ABE60137B2A2A7746456B6B1D77E086EAB9D705E ====

CD2 Лог создания рипа

Exact Audio Copy V1.0 beta 3 from 29. August 2011
EAC extraction logfile from 2. November 2013, 11:57
Black Label Society / Alcohol Fueled F#ckin' Brewtality Live!! +5 (CD2)
Used drive : PIONEER DVD-RW DVR-219L Adapter: 1 ID: 0
Read mode : SecureUtilize accurate stream : YesDefeat audio cache : YesMake use of C2 pointers : No
Read offset correction : 6Overread into Lead-In and Lead-Out : NoFill up missing offset samples with silence : YesDelete leading and trailing silent blocks : NoNull samples used in CRC calculations : YesUsed interface : Native Win32 interface for Win NT & 2000
Used output format : Internal WAV RoutinesSample format : 44.100 Hz; 16 Bit; Stereo
TOC of the extracted CD
Track | Start | Length | Start sector | End sector --------------------------------------------------------- 1 | 0:00.00 | 3:15.52 | 0 | 14676 2 | 3:15.52 | 7:00.26 | 14677 | 46202 3 | 10:16.03 | 4:36.71 | 46203 | 66973 4 | 14:52.74 | 4:45.13 | 66974 | 88361 5 | 19:38.12 | 4:29.46 | 88362 | 108582
Range status and errors
Selected range
Filename D:\.www.AvaxHome.ru\Black Label Society - Alcohol Fueled F#ckin' Brewtality Live!! +5 (CD2).wav
Peak level 98.8 % Extraction speed 6.1 X Range quality 100.0 % Test CRC 3FF6C33F Copy CRC 3FF6C33F Copy OK
No errors occurred
AccurateRip summary
Track 1 accurately ripped (confidence 5) [B10B2567] (AR v2)Track 2 accurately ripped (confidence 5) [317889A8] (AR v2)Track 3 accurately ripped (confidence 5) [21F83F1D] (AR v2)Track 4 accurately ripped (confidence 5) [66F13F38] (AR v2)Track 5 accurately ripped (confidence 5) [2E172D87] (AR v2)
All tracks accurately ripped
End of status report
---- CUETools DB Plugin V2.1.4
[CTDB TOCID: pFebpGvOxbwALePjWPaa9BxH6Yw-] foundSubmit result: pFebpGvOxbwALePjWPaa9BxH6Yw- has been confirmedTrack | CTDB Status 1 | (5/5) Accurately ripped 2 | (5/5) Accurately ripped 3 | (5/5) Accurately ripped 4 | (5/5) Accurately ripped 5 | (5/5) Accurately ripped
==== Log checksum 5545FF9145162ACF2806DF550A45286A58889A1A5EB2E162FB44A4553965514C ====

2002 - 1919 Eternal

Страна-производитель диска: Japan
Год издания диска: 2002
Издатель (лейбл): Universal Music Company
Номер по каталогу: UICE-1018
Аудио кодек: FLAC (*.flac)
Тип рипа: image+.cue
Битрейт аудио: lossless
Продолжительность: 1:01:15
Источник: Оригинальный диск из личной коллекции
Наличие сканов в содержимом раздачи: да (PNG 300dpi)
Треклист:
1. Bleed For Me - 5:31
2. Lords Of Destruction - 5:11
3. Demise Of Sanity - 3:23
4. Life, Birth, Blood, Doom - 4:21
5. Bridge To Cross - 5:49
6. Battering Ram - 2:22
7. Speedball - 0:58
8. Graveyard Disciples - 3:20
9. Genocide Junkies - 5:53
10. Lost Heaven - 4:24
11. Refuse To Bow Down - 4:53
12. Mass Murder Machine - 5:47
13. Berserkers - 5:06
14. America The Beautiful - 3:17
15. Llabdeeps (Japanese Bonus Track) - 1:00

Лог создания рипа

Exact Audio Copy V1.0 beta 3 from 29. August 2011
EAC extraction logfile from 7. October 2013, 20:42
Black Label Society / 1919 Eternal (Japan UICE-1018)
Used drive : PIONEER DVD-RW DVR-219L Adapter: 1 ID: 0
Read mode : SecureUtilize accurate stream : YesDefeat audio cache : YesMake use of C2 pointers : No
Read offset correction : 6Overread into Lead-In and Lead-Out : NoFill up missing offset samples with silence : YesDelete leading and trailing silent blocks : NoNull samples used in CRC calculations : YesUsed interface : Native Win32 interface for Win NT & 2000
Used output format : Internal WAV RoutinesSample format : 44.100 Hz; 16 Bit; Stereo
TOC of the extracted CD
Track | Start | Length | Start sector | End sector --------------------------------------------------------- 1 | 0:00.00 | 5:30.45 | 0 | 24794 2 | 5:30.45 | 5:10.49 | 24795 | 48093 3 | 10:41.19 | 3:23.36 | 48094 | 63354 4 | 14:04.55 | 4:21.00 | 63355 | 82929 5 | 18:25.55 | 5:49.23 | 82930 | 109127 6 | 24:15.03 | 2:21.50 | 109128 | 119752 7 | 26:36.53 | 0:58.31 | 119753 | 124133 8 | 27:35.09 | 3:19.47 | 124134 | 139105 9 | 30:54.56 | 5:53.28 | 139106 | 165608 10 | 36:48.09 | 4:23.50 | 165609 | 185383 11 | 41:11.59 | 4:53.14 | 185384 | 207372 12 | 46:04.73 | 5:46.63 | 207373 | 233385 13 | 51:51.61 | 5:05.48 | 233386 | 256308 14 | 56:57.34 | 3:17.29 | 256309 | 271112 15 | 60:14.63 | 1:00.20 | 271113 | 275632
Range status and errors
Selected range
Filename D:\.www.AvaxHome.ru\Black Label Society - 1919 Eternal (Japan UICE-1018).wav
Peak level 100.0 % Extraction speed 7.4 X Range quality 100.0 % Test CRC F71CCD36 Copy CRC F71CCD36 Copy OK
No errors occurred
AccurateRip summary
Track 1 accurately ripped (confidence 4) [F1C2A981] (AR v2)Track 2 accurately ripped (confidence 4) [E103DD86] (AR v2)Track 3 accurately ripped (confidence 4) [C6F0B916] (AR v2)Track 4 accurately ripped (confidence 4) [FD98DF12] (AR v2)Track 5 accurately ripped (confidence 4) [655233F1] (AR v2)Track 6 accurately ripped (confidence 4) [5735C14A] (AR v2)Track 7 accurately ripped (confidence 4) [B7788FD9] (AR v2)Track 8 accurately ripped (confidence 4) [4CF42E3C] (AR v2)Track 9 accurately ripped (confidence 4) [1DC72629] (AR v2)Track 10 accurately ripped (confidence 4) [A75112C4] (AR v2)Track 11 accurately ripped (confidence 4) [1ED4D04F] (AR v2)Track 12 accurately ripped (confidence 4) [83C1C56E] (AR v2)Track 13 accurately ripped (confidence 4) [63C39909] (AR v2)Track 14 accurately ripped (confidence 4) [B23A8988] (AR v2)Track 15 accurately ripped (confidence 4) [F8D5773B] (AR v2)
All tracks accurately ripped
End of status report
---- CUETools DB Plugin V2.1.3
[CTDB TOCID: y8hueg7p.QNCx581_6_S43VBbz0-] found, Submit result: y8hueg7p.QNCx581_6_S43VBbz0- has been confirmed[9f0d0a5a] (2/2) Accurately ripped

2003 - The Blessed Hellride

Страна-производитель диска: Japan
Год издания диска: 2003
Издатель (лейбл): Universal Music Company
Номер по каталогу: UICE-1044
Аудио кодек: FLAC (*.flac)
Тип рипа: image+.cue
Битрейт аудио: lossless
Продолжительность: 0:48:05
Источник: Оригинальный диск из личной коллекции
Наличие сканов в содержимом раздачи: да (PNG 300dpi)
Треклист:
1. Stoned And Drunk - 5:02
2. Doomsday Jesus - 3:30
3. Stillborn - 3:15
4. Suffering Overdue - 4:29
5. The Blessed Hellride - 4:33
6. Funeral Bell - 4:41
7. Final Solution - 4:05
8. Destruction Overdrive - 3:01
9. Blackened Waters - 3:56
10. We Live No More - 4:02
11. Dead Meadow - 4:31
12. F.U.N. (Japanese Bonus Track) - 2:58

Лог создания рипа

Exact Audio Copy V1.0 beta 3 from 29. August 2011
EAC extraction logfile from 7. October 2013, 19:51
Black Label Society / The Blessed Hellride (Japan UICE-1044)
Used drive : PIONEER DVD-RW DVR-219L Adapter: 1 ID: 0
Read mode : SecureUtilize accurate stream : YesDefeat audio cache : YesMake use of C2 pointers : No
Read offset correction : 6Overread into Lead-In and Lead-Out : NoFill up missing offset samples with silence : YesDelete leading and trailing silent blocks : NoNull samples used in CRC calculations : YesUsed interface : Native Win32 interface for Win NT & 2000
Used output format : Internal WAV RoutinesSample format : 44.100 Hz; 16 Bit; Stereo
TOC of the extracted CD
Track | Start | Length | Start sector | End sector --------------------------------------------------------- 1 | 0:00.00 | 5:02.35 | 0 | 22684 2 | 5:02.35 | 3:30.37 | 22685 | 38471 3 | 8:32.72 | 3:15.20 | 38472 | 53116 4 | 11:48.17 | 4:29.30 | 53117 | 73321 5 | 16:17.47 | 4:32.38 | 73322 | 93759 6 | 20:50.10 | 4:41.00 | 93760 | 114834 7 | 25:31.10 | 4:04.72 | 114835 | 133206 8 | 29:36.07 | 3:01.33 | 133207 | 146814 9 | 32:37.40 | 3:56.12 | 146815 | 164526 10 | 36:33.52 | 4:02.03 | 164527 | 182679 11 | 40:35.55 | 4:31.15 | 182680 | 203019 12 | 45:06.70 | 2:58.12 | 203020 | 216381
Range status and errors
Selected range
Filename D:\.www.AvaxHome.ru\Black Label Society - The Blessed Hellride (Japan UICE-1044).wav
Peak level 99.8 % Extraction speed 6.9 X Range quality 99.9 % Test CRC 30A07F30 Copy CRC 30A07F30 Copy OK
No errors occurred
AccurateRip summary
Track 1 accurately ripped (confidence 3) [E51F5343] (AR v2)Track 2 accurately ripped (confidence 3) [E8D5653A] (AR v2)Track 3 accurately ripped (confidence 3) [E3555301] (AR v2)Track 4 accurately ripped (confidence 3) [918CE17E] (AR v2)Track 5 accurately ripped (confidence 3) [E8865EF2] (AR v2)Track 6 accurately ripped (confidence 3) [CB6BC3BD] (AR v2)Track 7 accurately ripped (confidence 3) [FF70C411] (AR v2)Track 8 accurately ripped (confidence 3) [AF98D3DE] (AR v2)Track 9 accurately ripped (confidence 3) [095A2875] (AR v2)Track 10 accurately ripped (confidence 3) [4BCD67FD] (AR v2)Track 11 accurately ripped (confidence 3) [D1CB7AD1] (AR v2)Track 12 accurately ripped (confidence 3) [CF300CC5] (AR v2)
All tracks accurately ripped
End of status report
---- CUETools DB Plugin V2.1.3
[CTDB TOCID: YlL81gpILU_R85m2LKsgNG5SA0c-] found, Submit result: YlL81gpILU_R85m2LKsgNG5SA0c- has been confirmed[9144caf8] (8/8) Accurately ripped

2004 - Hangover Music Vol. VI

Страна-производитель диска: Japan
Год издания диска: 2004
Издатель (лейбл): Universal
Номер по каталогу: UICE-1096
Аудио кодек: FLAC (*.flac)
Тип рипа: image+.cue
Битрейт аудио: lossless
Продолжительность: 1:07:00
Источник: Оригинальный диск из личной коллекции
Наличие сканов в содержимом раздачи: да (PNG 300dpi)
Треклист:
1. Crazy Or High - 3:35
2. Queen Of Sorrow - 4:15
3. Steppin Stone - 4:55
4. Yesterday, Today, Tomorrow - 3:44
5. Takillya (Esthabon) - 0:39
6. Won't Find It Here - 6:26
7. She Deserves A Free Ride (Val's Song) - 4:20
8. House Of Doom - 3:47
9. Damage Is Done - 5:21
10. Layne - 5:16
11. Woman Don't Cry - 5:39
12. No Other - 4:59
13. Whiter Shade Of Pale - 5:09
14. Once More - 4:11
15. Fear - 4:45

Лог создания рипа

Exact Audio Copy V1.0 beta 3 from 29. August 2011
EAC extraction logfile from 7. October 2013, 21:01
Black Label Society / Hangover Music Vol. VI (Japan UICE-1096)
Used drive : PIONEER DVD-RW DVR-219L Adapter: 1 ID: 0
Read mode : SecureUtilize accurate stream : YesDefeat audio cache : YesMake use of C2 pointers : No
Read offset correction : 6Overread into Lead-In and Lead-Out : NoFill up missing offset samples with silence : YesDelete leading and trailing silent blocks : NoNull samples used in CRC calculations : YesUsed interface : Native Win32 interface for Win NT & 2000
Used output format : Internal WAV RoutinesSample format : 44.100 Hz; 16 Bit; Stereo
TOC of the extracted CD
Track | Start | Length | Start sector | End sector --------------------------------------------------------- 1 | 0:00.00 | 3:34.60 | 0 | 16109 2 | 3:34.60 | 4:15.10 | 16110 | 35244 3 | 7:49.70 | 4:54.57 | 35245 | 57351 4 | 12:44.52 | 3:43.58 | 57352 | 74134 5 | 16:28.35 | 0:39.22 | 74135 | 77081 6 | 17:07.57 | 6:26.18 | 77082 | 106049 7 | 23:34.00 | 4:19.52 | 106050 | 125526 8 | 27:53.52 | 3:46.65 | 125527 | 142541 9 | 31:40.42 | 5:20.70 | 142542 | 166611 10 | 37:01.37 | 5:15.50 | 166612 | 190286 11 | 42:17.12 | 5:39.23 | 190287 | 215734 12 | 47:56.35 | 4:59.15 | 215735 | 238174 13 | 52:55.50 | 5:08.72 | 238175 | 261346 14 | 58:04.47 | 4:10.53 | 261347 | 280149 15 | 62:15.25 | 4:44.47 | 280150 | 301496
Range status and errors
Selected range
Filename D:\.www.AvaxHome.ru\Black Label Society - Hangover Music Vol. VI (Japan UICE-1096).wav
Peak level 99.9 % Extraction speed 8.3 X Range quality 100.0 % Test CRC BDD06DF5 Copy CRC BDD06DF5 Copy OK
No errors occurred
AccurateRip summary
Track 1 accurately ripped (confidence 4) [4C79E2B9] (AR v2)Track 2 accurately ripped (confidence 4) [90A31A8F] (AR v2)Track 3 accurately ripped (confidence 4) [094A2703] (AR v2)Track 4 accurately ripped (confidence 4) [B418E219] (AR v2)Track 5 accurately ripped (confidence 4) [53D99F77] (AR v2)Track 6 accurately ripped (confidence 4) [43A591BF] (AR v2)Track 7 accurately ripped (confidence 4) [C6D18BED] (AR v2)Track 8 accurately ripped (confidence 4) [8124C49A] (AR v2)Track 9 accurately ripped (confidence 4) [FAF72E09] (AR v2)Track 10 accurately ripped (confidence 4) [40964BDF] (AR v2)Track 11 accurately ripped (confidence 4) [A812C0F0] (AR v2)Track 12 accurately ripped (confidence 4) [E76FA444] (AR v2)Track 13 accurately ripped (confidence 4) [54BC918E] (AR v2)Track 14 accurately ripped (confidence 4) [EDB1DE77] (AR v2)Track 15 accurately ripped (confidence 4) [362856B6] (AR v2)
All tracks accurately ripped
End of status report
---- CUETools DB Plugin V2.1.3
[CTDB TOCID: 5u_.DQKMyukXG4yRSfrnNj3JZlk-] found, Submit result: 5u_.DQKMyukXG4yRSfrnNj3JZlk- has been confirmed[db6ae145] (8/8) Accurately ripped

2005 - Kings Of Damnation (2CD)

Страна-производитель диска: Germany
Год издания диска: 2005
Издатель (лейбл): Spitfire Records
Номер по каталогу: SPITCD255 (GAS 0000255 SPR)
Аудио кодек: FLAC (*.flac)
Тип рипа: image+.cue
Битрейт аудио: lossless
Продолжительность: 1:11:59 + 0:38:36
Источник: Оригинальный диск из личной коллекции
Наличие сканов в содержимом раздачи: да (PNG 300dpi)
CD1 Треклист:
1. Losing Your Mind - 5:28
2. Horse Called War - 5:01
3. Between Heaven and Hell - 3:22
4. Sold My Soul - 4:53
5. Bored To Tears - 4:28
6. Bleed For Me - 5:30
7. TAZ - 1:55
8. Counterfeit God - 4:19
9. Stronger Than Death - 4:53
10. Speedball - 0:59
11. Demise Of Sanity - 3:24
12. We Live No More - 3:59
13. Stillborn - 3:16
14. The Blessed Hellride - 4:32
15. Crazy Or High - 3:35
16. House Of Doom - 3:46
17. Takillya - 0:41
18. Doomsday Inc. (New Unreleased Track) - 4:25
19. SDMF (New Unreleased Track) - 3:33
CD2 Треклист:
1. No More Tears - 6:57
2. Whiter Shade Of Pale - 5:14
3. Heart Of Gold - 3:14
4. Snowblind - 7:01
5. The Wizard - 4:44
6. In My Time Of Dyin' - 7:30
7. Come Together - 3:56
---
8. Counterfeit God (Video)
9. Stillborn (Video)
3. Bleed For Me (Video)

CD1 Лог создания рипа

Exact Audio Copy V1.0 beta 3 from 29. August 2011
EAC extraction logfile from 31. January 2012, 17:20
Black Label Society / Kings Of Damnation (CD1)
Used drive : PIONEER DVD-RW DVR-219L Adapter: 2 ID: 0
Read mode : SecureUtilize accurate stream : YesDefeat audio cache : YesMake use of C2 pointers : No
Read offset correction : 6Overread into Lead-In and Lead-Out : NoFill up missing offset samples with silence : YesDelete leading and trailing silent blocks : NoNull samples used in CRC calculations : YesUsed interface : Native Win32 interface for Win NT & 2000
Used output format : Internal WAV RoutinesSample format : 44.100 Hz; 16 Bit; Stereo
TOC of the extracted CD
Track | Start | Length | Start sector | End sector --------------------------------------------------------- 1 | 0:00.00 | 5:28.09 | 0 | 24608 2 | 5:28.09 | 5:01.22 | 24609 | 47205 3 | 10:29.31 | 3:22.02 | 47206 | 62357 4 | 13:51.33 | 4:53.26 | 62358 | 84358 5 | 18:44.59 | 4:28.31 | 84359 | 104489 6 | 23:13.15 | 5:30.25 | 104490 | 129264 7 | 28:43.40 | 1:55.05 | 129265 | 137894 8 | 30:38.45 | 4:18.71 | 137895 | 157315 9 | 34:57.41 | 4:53.07 | 157316 | 179297 10 | 39:50.48 | 0:58.59 | 179298 | 183706 11 | 40:49.32 | 3:23.45 | 183707 | 198976 12 | 44:13.02 | 3:59.09 | 198977 | 216910 13 | 48:12.11 | 3:15.51 | 216911 | 231586 14 | 51:27.62 | 4:32.31 | 231587 | 252017 15 | 56:00.18 | 3:34.60 | 252018 | 268127 16 | 59:35.03 | 3:45.64 | 268128 | 285066 17 | 63:20.67 | 0:40.64 | 285067 | 288130 18 | 64:01.56 | 4:24.48 | 288131 | 307978 19 | 68:26.29 | 3:32.61 | 307979 | 323939
Range status and errors
Selected range
Filename F:\.www.AvaxHome.ru.lossless\Black Label Society - Kings Of Damnation (CD1).wav
Peak level 100.0 % Extraction speed 8.3 X Range quality 100.0 % Test CRC E73EEE56 Copy CRC E73EEE56 Copy OK
No errors occurred
AccurateRip summary
Track 1 accurately ripped (confidence 2) [4FE41F73] (AR v2)Track 2 accurately ripped (confidence 2) [AEC715B6] (AR v2)Track 3 accurately ripped (confidence 2) [7FB3CC26] (AR v2)Track 4 accurately ripped (confidence 2) [6C55BB0E] (AR v2)Track 5 accurately ripped (confidence 2) [1748A8DD] (AR v2)Track 6 accurately ripped (confidence 2) [95B89DB2] (AR v2)Track 7 accurately ripped (confidence 2) [B8EBDE75] (AR v2)Track 8 accurately ripped (confidence 2) [82AB9DEA] (AR v2)Track 9 accurately ripped (confidence 2) [C6851AD6] (AR v2)Track 10 accurately ripped (confidence 2) [CF71E99B] (AR v2)Track 11 accurately ripped (confidence 2) [A4FFE404] (AR v2)Track 12 accurately ripped (confidence 2) [63AFF132] (AR v2)Track 13 accurately ripped (confidence 2) [6E8E2061] (AR v2)Track 14 accurately ripped (confidence 2) [3E45E768] (AR v2)Track 15 accurately ripped (confidence 2) [17561D33] (AR v2)Track 16 accurately ripped (confidence 2) [C841D9E0] (AR v2)Track 17 accurately ripped (confidence 2) [531676EF] (AR v2)Track 18 accurately ripped (confidence 2) [C5120798] (AR v2)Track 19 accurately ripped (confidence 2) [DFA1E025] (AR v2)
All tracks accurately ripped
End of status report
==== Log checksum 788E13CB728B0FBF4C787629D26BB1CC250BED1A4E455F254853F245026F014F ====

CD2 Лог создания рипа

Exact Audio Copy V1.0 beta 3 from 29. August 2011
EAC extraction logfile from 31. January 2012, 17:34
Black Label Society / Kings Of Damnation (CD2)
Used drive : PIONEER DVD-RW DVR-219L Adapter: 2 ID: 0
Read mode : SecureUtilize accurate stream : YesDefeat audio cache : YesMake use of C2 pointers : No
Read offset correction : 6Overread into Lead-In and Lead-Out : NoFill up missing offset samples with silence : YesDelete leading and trailing silent blocks : NoNull samples used in CRC calculations : YesUsed interface : Native Win32 interface for Win NT & 2000
Used output format : Internal WAV RoutinesSample format : 44.100 Hz; 16 Bit; Stereo
TOC of the extracted CD
Track | Start | Length | Start sector | End sector --------------------------------------------------------- 1 | 0:00.00 | 6:56.61 | 0 | 31260 2 | 6:56.61 | 5:14.20 | 31261 | 54830 3 | 12:11.06 | 3:14.26 | 54831 | 69406 4 | 15:25.32 | 7:00.41 | 69407 | 100947 5 | 22:25.73 | 4:44.16 | 100948 | 122263 6 | 27:10.14 | 7:30.04 | 122264 | 156017 7 | 34:40.18 | 3:55.74 | 156018 | 173716 8 | 41:08.17 | 26:59.00 | 185117 | 306541
Range status and errors
Selected range
Filename F:\.www.AvaxHome.ru.lossless\Black Label Society - Kings Of Damnation (CD2).wav
Peak level 98.8 % Extraction speed 7.1 X Range quality 100.0 % Test CRC A6E6CA3B Copy CRC A6E6CA3B Copy OK
No errors occurred
AccurateRip summary
Track 1 accurately ripped (confidence 5) [EE22B52A] (AR v1)Track 2 accurately ripped (confidence 5) [6038421D] (AR v1)Track 3 accurately ripped (confidence 5) [E69FD7F8] (AR v1)Track 4 accurately ripped (confidence 5) [E918B258] (AR v1)Track 5 accurately ripped (confidence 5) [0BA0977E] (AR v1)Track 6 accurately ripped (confidence 5) [3FDD008F] (AR v1)Track 7 accurately ripped (confidence 5) [2708A391] (AR v1)
All tracks accurately ripped
End of status report
==== Log checksum 9B84F67FB1258A6DDBD8E898998FDAC5F313C6504B214E8661E993E75B6F3323 ====

Video

1. Counterfeit God.mpg
Формат: MPEG Video
Видео кодек: MPEG-PS
Аудио кодек: MPEG Audio
Видео: Разрешение: 352x288, 4:3, 25.000 fps, 2 500 Kbps
Аудио: Количество каналов: 2; 44100 Hz, 16 bits stereo, 192 Kbps
Размер файла: 79.6 MB
Продолжительность: 4mn 27s


-
2. Stillborn.mpg
Формат: MPEG Video
Видео кодек: MPEG-PS
Аудио кодек: MPEG Audio
Видео: Разрешение: 352x288, 4:3, 25.000 fps, 2 500 Kbps
Аудио: Количество каналов: 2; 44100 Hz, 16 bits stereo, 192 Kbps
Размер файла: 79.6 MB
Продолжительность: 3mn 27s


-
3. Bleed For Me.mpg
Формат: MPEG Video
Видео кодек: MPEG-PS
Аудио кодек: MPEG Audio
Видео: Разрешение: 352x288, 4:3, 25.000 fps, 2 500 Kbps
Аудио: Количество каналов: 2; 44100 Hz, 16 bits stereo, 192 Kbps
Размер файла: 94.8 MB
Продолжительность: 5mn 18s

2005 - Mafia

Страна-производитель диска: Japan
Год издания диска:
Издатель (лейбл): Victor Enertainment
Номер по каталогу: VICP-63008
Аудио кодек: FLAC (*.flac)
Тип рипа: image+.cue
Битрейт аудио: lossless
Продолжительность: 0:54:05
Источник: Оригинальный диск из личной коллекции
Наличие сканов в содержимом раздачи: да (PNG 300dpi)
Треклист:
1. Fire It Up - 5:00
2. What's In You - 3:01
3. Suicide Messiah - 5:48
4. Forever Down - 3:39
5. In This River - 3:53
6. You Must Be Blind - 3:28
7. Death March - 3:05
8. Dr. Octavia - 0:50
9. Say What You Will - 3:47
10. Too Tough To Die - 2:50
11. Electric Hellfire - 2:28
12. Spread Your Wings - 4:10
13. Been A Long Time - 3:07
14. Dirt On The Grave - 2:51
15. I Never Dreamed (Lynyrd Skynyrd Cover) (Japanese Bonus Track) - 6:09

Лог создания рипа

Exact Audio Copy V1.0 beta 3 from 29. August 2011
EAC extraction logfile from 7. October 2013, 21:22
Black Label Society / Mafia (Japan VICP-63008)
Used drive : PIONEER DVD-RW DVR-219L Adapter: 1 ID: 0
Read mode : SecureUtilize accurate stream : YesDefeat audio cache : YesMake use of C2 pointers : No
Read offset correction : 6Overread into Lead-In and Lead-Out : NoFill up missing offset samples with silence : YesDelete leading and trailing silent blocks : NoNull samples used in CRC calculations : YesUsed interface : Native Win32 interface for Win NT & 2000
Used output format : Internal WAV RoutinesSample format : 44.100 Hz; 16 Bit; Stereo
TOC of the extracted CD
Track | Start | Length | Start sector | End sector --------------------------------------------------------- 1 | 0:00.00 | 4:59.57 | 0 | 22481 2 | 4:59.57 | 3:00.38 | 22482 | 36019 3 | 8:00.20 | 5:47.40 | 36020 | 62084 4 | 13:47.60 | 3:39.25 | 62085 | 78534 5 | 17:27.10 | 3:52.52 | 78535 | 95986 6 | 21:19.62 | 3:27.70 | 95987 | 111581 7 | 24:47.57 | 3:05.03 | 111582 | 125459 8 | 27:52.60 | 0:50.07 | 125460 | 129216 9 | 28:42.67 | 3:46.70 | 129217 | 146236 10 | 32:29.62 | 2:50.10 | 146237 | 158996 11 | 35:19.72 | 2:28.10 | 158997 | 170106 12 | 37:48.07 | 4:09.45 | 170107 | 188826 13 | 41:57.52 | 3:07.28 | 188827 | 202879 14 | 45:05.05 | 2:51.17 | 202880 | 215721 15 | 47:56.22 | 6:08.45 | 215722 | 243366
Range status and errors
Selected range
Filename D:\.www.AvaxHome.ru\Black Label Society - Mafia (Japan VICP-63008).wav
Peak level 99.7 % Extraction speed 7.1 X Range quality 100.0 % Test CRC 44007638 Copy CRC 44007638 Copy OK
No errors occurred
AccurateRip summary
Track 1 accurately ripped (confidence 3) [E68A5A0B] (AR v2)Track 2 accurately ripped (confidence 3) [298C2D9F] (AR v2)Track 3 accurately ripped (confidence 2) [3051DF58] (AR v2)Track 4 accurately ripped (confidence 3) [EB63525A] (AR v2)Track 5 accurately ripped (confidence 3) [425291B4] (AR v2)Track 6 accurately ripped (confidence 3) [A120AA51] (AR v2)Track 7 accurately ripped (confidence 3) [1C6F72A5] (AR v2)Track 8 accurately ripped (confidence 3) [E34F3AE6] (AR v2)Track 9 accurately ripped (confidence 3) [CA9706AF] (AR v2)Track 10 accurately ripped (confidence 3) [2A4A8AAC] (AR v2)Track 11 accurately ripped (confidence 3) [26F147BE] (AR v2)Track 12 accurately ripped (confidence 3) [3310C110] (AR v2)Track 13 accurately ripped (confidence 3) [73D89121] (AR v2)Track 14 accurately ripped (confidence 3) [D01209C8] (AR v2)Track 15 accurately ripped (confidence 3) [4FF6F7DA] (AR v2)
All tracks accurately ripped
End of status report
---- CUETools DB Plugin V2.1.3
[CTDB TOCID: p6t6j5fTEpotexawYCzUYa8bA68-] found, Submit result: p6t6j5fTEpotexawYCzUYa8bA68- has been confirmed[a5eb0b8d] (5/5) Accurately ripped

2006 - Shot To Hell

Страна-производитель диска: Japan
Год издания диска: 2006
Издатель (лейбл): Victor Entertainment
Номер по каталогу: VICP-63582
Аудио кодек: FLAC (*.flac)
Тип рипа: image+.cue
Битрейт аудио: lossless
Продолжительность: 0:44:12
Источник: Оригинальный диск из личной коллекции
Наличие сканов в содержимом раздачи: да (PNG 300dpi)
Треклист:
01. Concrete Jungle - 3:24
02. Black Mass Reverends - 2:37
03. Blacked Out World - 3:17
04. The Last Goodbye - 4:04
05. Give Yourself To Me - 3:18
06. Nothing's The Same - 3:02
07. Hell Is High - 3:32
08. New Religion - 4:37
09. Sick Of It All - 3:55
10. Faith Is Blind - 3:36
11. Blood Is Thicker Than Water - 2:59
12. Devil's Dime - 2:16
13. Lead Me To Your Door - 3:34

Лог создания рипа

Exact Audio Copy V1.0 beta 3 from 29. August 2011
EAC extraction logfile from 7. October 2013, 21:37
Black Label Society / Shot To Hell (Japan VICP-63582)
Used drive : PIONEER DVD-RW DVR-219L Adapter: 1 ID: 0
Read mode : SecureUtilize accurate stream : YesDefeat audio cache : YesMake use of C2 pointers : No
Read offset correction : 6Overread into Lead-In and Lead-Out : NoFill up missing offset samples with silence : YesDelete leading and trailing silent blocks : NoNull samples used in CRC calculations : YesUsed interface : Native Win32 interface for Win NT & 2000
Used output format : Internal WAV RoutinesSample format : 44.100 Hz; 16 Bit; Stereo
TOC of the extracted CD
Track | Start | Length | Start sector | End sector --------------------------------------------------------- 1 | 0:00.00 | 3:24.20 | 0 | 15319 2 | 3:24.20 | 2:36.70 | 15320 | 27089 3 | 6:01.15 | 3:16.60 | 27090 | 41849 4 | 9:18.00 | 4:04.30 | 41850 | 60179 5 | 13:22.30 | 3:18.33 | 60180 | 75062 6 | 16:40.63 | 3:01.50 | 75063 | 88687 7 | 19:42.38 | 3:32.37 | 88688 | 104624 8 | 23:15.00 | 4:36.58 | 104625 | 125382 9 | 27:51.58 | 3:55.10 | 125383 | 143017 10 | 31:46.68 | 3:36.30 | 143018 | 159247 11 | 35:23.23 | 2:58.52 | 159248 | 172649 12 | 38:22.00 | 2:15.73 | 172650 | 182847 13 | 40:37.73 | 3:33.47 | 182848 | 198869
Range status and errors
Selected range
Filename D:\.www.AvaxHome.ru\Black Label Society - Shot To Hell (Japan VICP-63582).wav
Peak level 96.6 % Extraction speed 6.7 X Range quality 100.0 % Test CRC 8995DF0B Copy CRC 8995DF0B Copy OK
No errors occurred
AccurateRip summary
Track 1 accurately ripped (confidence 3) [1B11E97F] (AR v1)Track 2 accurately ripped (confidence 3) [12CE8D9B] (AR v1)Track 3 accurately ripped (confidence 3) [B2F5BE93] (AR v1)Track 4 accurately ripped (confidence 3) [5DD40731] (AR v1)Track 5 accurately ripped (confidence 3) [76B1D1D3] (AR v1)Track 6 accurately ripped (confidence 3) [A2A1F613] (AR v1)Track 7 accurately ripped (confidence 3) [329BBABF] (AR v1)Track 8 accurately ripped (confidence 3) [7D107767] (AR v1)Track 9 accurately ripped (confidence 3) [B1EBFBFC] (AR v1)Track 10 accurately ripped (confidence 3) [CB77D09F] (AR v1)Track 11 accurately ripped (confidence 3) [5B084B9A] (AR v1)Track 12 accurately ripped (confidence 3) [3A613955] (AR v1)Track 13 accurately ripped (confidence 3) [A15AEA65] (AR v1)
All tracks accurately ripped
End of status report
---- CUETools DB Plugin V2.1.3
[CTDB TOCID: ipuhmVIowNoVt402nLBGw2bfxvE-] found, Submit result: ipuhmVIowNoVt402nLBGw2bfxvE- has been confirmed[19de5aaf] (6/6) Accurately ripped

2009 - Skullage

Страна-производитель диска: US
Год издания диска: 2009
Издатель (лейбл): Eagle Vision
Номер по каталогу: EV 30270-9
Аудио кодек: FLAC (*.flac)
Тип рипа: image+.cue
Битрейт аудио: lossless
Продолжительность: 1:15:29
Источник: Оригинальный диск из личной коллекции
Наличие сканов в содержимом раздачи: да (PNG 300dpi)
Треклист:
1. Machine Gun Man - 4:58
2. Dead As Yesterday - 2:52
3. All For You - 4:01
4. 13 Years Of Grief - 4:12
5. Bleed For Me - 5:31
6. Doomsday Jesus - 3:31
7. Stillborn - 3:16
8. Won't Find It Here - 6:27
9. Suicide Messiah - 5:48
10. In This River - 3:55
11. Fire It Up - 5:02
12. New Religion - 4:36
13. Slightly Amped (Live In Lehigh Valley) - 4:59
14. The Blessed Hellride (Acoustic) - 5:12
15. Spoke In The Wheel (Acoustic) - 5:04
16. Stillborn (Acoustic) - 6:05

Лог создания рипа

Exact Audio Copy V1.0 beta 3 from 29. August 2011
EAC extraction logfile from 28. February 2013, 18:56
Black Label Society / Skullage (EV 30270-9)
Used drive : PIONEER DVD-RW DVR-219L Adapter: 1 ID: 0
Read mode : SecureUtilize accurate stream : YesDefeat audio cache : YesMake use of C2 pointers : No
Read offset correction : 6Overread into Lead-In and Lead-Out : NoFill up missing offset samples with silence : YesDelete leading and trailing silent blocks : NoNull samples used in CRC calculations : YesUsed interface : Native Win32 interface for Win NT & 2000
Used output format : Internal WAV RoutinesSample format : 44.100 Hz; 16 Bit; Stereo
TOC of the extracted CD
Track | Start | Length | Start sector | End sector --------------------------------------------------------- 1 | 0:00.00 | 4:57.68 | 0 | 22342 2 | 4:57.68 | 2:51.68 | 22343 | 35235 3 | 7:49.61 | 4:00.39 | 35236 | 53274 4 | 11:50.25 | 4:12.32 | 53275 | 72206 5 | 16:02.57 | 5:31.02 | 72207 | 97033 6 | 21:33.59 | 3:31.30 | 97034 | 112888 7 | 25:05.14 | 3:16.03 | 112889 | 127591 8 | 28:21.17 | 6:26.41 | 127592 | 156582 9 | 34:47.58 | 5:47.65 | 156583 | 182672 10 | 40:35.48 | 3:55.32 | 182673 | 200329 11 | 44:31.05 | 5:01.61 | 200330 | 222965 12 | 49:32.66 | 4:35.68 | 222966 | 243658 13 | 54:08.59 | 4:58.49 | 243659 | 266057 14 | 59:07.33 | 5:12.03 | 266058 | 289460 15 | 64:19.36 | 5:03.65 | 289461 | 312250 16 | 69:23.26 | 6:05.30 | 312251 | 339655
Range status and errors
Selected range
Filename D:\.www.AvaxHome.ru\Black Label Society - Skullage (EV 30270-9).wav
Peak level 100.0 % Extraction speed 8.2 X Range quality 100.0 % Test CRC F598DA9E Copy CRC F598DA9E Copy OK
No errors occurred
AccurateRip summary
Track 1 accurately ripped (confidence 2) [35859EBC] (AR v2)Track 2 accurately ripped (confidence 2) [3E092688] (AR v2)Track 3 accurately ripped (confidence 2) [1594AE87] (AR v2)Track 4 accurately ripped (confidence 2) [94F9BB81] (AR v2)Track 5 accurately ripped (confidence 2) [24E19B7D] (AR v2)Track 6 accurately ripped (confidence 2) [39D4FB5F] (AR v2)Track 7 accurately ripped (confidence 2) [D31102BB] (AR v2)Track 8 accurately ripped (confidence 2) [FD06A2AA] (AR v2)Track 9 accurately ripped (confidence 2) [3EDA6FC7] (AR v2)Track 10 accurately ripped (confidence 2) [34D29ADF] (AR v2)Track 11 accurately ripped (confidence 2) [701F2BF0] (AR v2)Track 12 accurately ripped (confidence 2) [D96BE2B4] (AR v2)Track 13 accurately ripped (confidence 2) [BF1EC003] (AR v2)Track 14 accurately ripped (confidence 2) [572971B1] (AR v2)Track 15 accurately ripped (confidence 2) [5C109EE1] (AR v2)Track 16 accurately ripped (confidence 2) [01166554] (AR v2)
All tracks accurately ripped
End of status report
---- CUETools DB Plugin V2.1.4
[CTDB TOCID: 6zP7b_qKM._MiJvbSySiQ0kPOuw-] foundSubmit result: 6zP7b_qKM._MiJvbSySiQ0kPOuw- has been confirmedTrack | CTDB Status 1 | (6/6) Accurately ripped 2 | (6/6) Accurately ripped 3 | (6/6) Accurately ripped 4 | (6/6) Accurately ripped 5 | (6/6) Accurately ripped 6 | (6/6) Accurately ripped 7 | (6/6) Accurately ripped 8 | (6/6) Accurately ripped 9 | (6/6) Accurately ripped 10 | (6/6) Accurately ripped 11 | (6/6) Accurately ripped 12 | (6/6) Accurately ripped 13 | (6/6) Accurately ripped 14 | (6/6) Accurately ripped 15 | (6/6) Accurately ripped 16 | (6/6) Accurately ripped
==== Log checksum 9E0D6F2A3F9FA7A77F5D4BE8B7B88174E019FAC956A5027BAD8755F273F0DE2D ====

2010 - Order Of The Black

2010 - Order Of The Black (Germany, Roadrunner RR 7778-5)

Страна-производитель диска: Germany
Год издания диска: 2010
Издатель (лейбл): Roadrunner
Номер по каталогу: RR 7778-5
Аудио кодек: FLAC (*.flac)
Тип рипа: image+.cue
Битрейт аудио: lossless
Продолжительность: 0:52:40
Источник: Оригинальный диск из личной коллекции
Наличие сканов в содержимом раздачи: да (PNG 300dpi)
Треклист:
1. Crazy Horse - 4:04
2. Overlord - 6:05
3. Parade Of The Dead - 3:37
4. Darkest Days - 4:17
5. Black Sunday - 3:23
6. Southern Dissolution - 4:56
7. Time Waits For No One - 3:36
8. Godspeed Hellbound - 4:43
9. War Of Heaven - 4:09
10. Shallow Grave - 3:37
11. Chupacabra - 0:49
12. Riders Of The Damned - 3:24
13. January - 2:24
14. Can't Find My Way Home - 3:34

Лог создания рипа

Exact Audio Copy V1.0 beta 3 from 29. August 2011
EAC extraction logfile from 10. October 2013, 16:16
Black Label Society / Order Of The Black (Germany, Roadrunner RR 7778-5)
Used drive : PIONEER DVD-RW DVR-219L Adapter: 1 ID: 0
Read mode : SecureUtilize accurate stream : YesDefeat audio cache : YesMake use of C2 pointers : No
Read offset correction : 6Overread into Lead-In and Lead-Out : NoFill up missing offset samples with silence : YesDelete leading and trailing silent blocks : NoNull samples used in CRC calculations : YesUsed interface : Native Win32 interface for Win NT & 2000
Used output format : Internal WAV RoutinesSample format : 44.100 Hz; 16 Bit; Stereo
TOC of the extracted CD
Track | Start | Length | Start sector | End sector --------------------------------------------------------- 1 | 0:00.00 | 4:04.15 | 0 | 18314 2 | 4:04.15 | 6:05.12 | 18315 | 45701 3 | 10:09.27 | 3:36.49 | 45702 | 61950 4 | 13:46.01 | 4:17.29 | 61951 | 81254 5 | 18:03.30 | 3:23.25 | 81255 | 96504 6 | 21:26.55 | 4:56.34 | 96505 | 118738 7 | 26:23.14 | 3:36.14 | 118739 | 134952 8 | 29:59.28 | 4:43.34 | 134953 | 156211 9 | 34:42.62 | 4:09.05 | 156212 | 174891 10 | 38:51.67 | 3:37.30 | 174892 | 191196 11 | 42:29.22 | 0:49.02 | 191197 | 194873 12 | 43:18.24 | 3:23.45 | 194874 | 210143 13 | 46:41.69 | 2:24.21 | 210144 | 220964 14 | 49:06.15 | 3:33.70 | 220965 | 237009
Range status and errors
Selected range
Filename D:\.www.AvaxHome.ru\Black Label Society - Order Of The Black (Germany, Roadrunner RR 7778-5).wav
Peak level 99.9 % Extraction speed 7.6 X Range quality 100.0 % Test CRC 9E72022F Copy CRC 9E72022F Copy OK
No errors occurred
AccurateRip summary
Track 1 accurately ripped (confidence 14) [934E08EA] (AR v2)Track 2 accurately ripped (confidence 14) [9BE13A92] (AR v2)Track 3 accurately ripped (confidence 14) [BCAFA1B9] (AR v2)Track 4 accurately ripped (confidence 14) [6D078F1C] (AR v2)Track 5 accurately ripped (confidence 14) [6814D772] (AR v2)Track 6 accurately ripped (confidence 14) [84A1D7AD] (AR v2)Track 7 accurately ripped (confidence 14) [F9F03F66] (AR v2)Track 8 accurately ripped (confidence 14) [5A92EF8D] (AR v2)Track 9 accurately ripped (confidence 14) [7E4890D1] (AR v2)Track 10 accurately ripped (confidence 14) [EEA4E027] (AR v2)Track 11 accurately ripped (confidence 14) [99AC4129] (AR v2)Track 12 accurately ripped (confidence 14) [41FB38FD] (AR v2)Track 13 accurately ripped (confidence 14) [A061102D] (AR v2)Track 14 accurately ripped (confidence 13) [BBAD421C] (AR v2)
All tracks accurately ripped
End of status report
---- CUETools DB Plugin V2.1.4
[CTDB TOCID: OAN9ZIATdRy3V0TcT7YXrzl1mqI-] foundSubmit result: OAN9ZIATdRy3V0TcT7YXrzl1mqI- has been confirmedTrack | CTDB Status 1 | (8/8) Accurately ripped 2 | (8/8) Accurately ripped 3 | (8/8) Accurately ripped 4 | (8/8) Accurately ripped 5 | (8/8) Accurately ripped 6 | (8/8) Accurately ripped 7 | (8/8) Accurately ripped 8 | (8/8) Accurately ripped 9 | (8/8) Accurately ripped 10 | (8/8) Accurately ripped 11 | (8/8) Accurately ripped 12 | (8/8) Accurately ripped 13 | (8/8) Accurately ripped 14 | (8/8) Accurately ripped
==== Log checksum 0625EA46FCE2F8707EC1C16FB24074E3A98A1E40618932B94DEE36D17E1B288B ====

2010 - Order Of The Black (Japan, Victor VICP-64858)

Страна-производитель диска: Japan
Год издания диска: 2010
Издатель (лейбл): Victor Entertainment
Номер по каталогу: VICP-64858
Аудио кодек: FLAC (*.flac)
Тип рипа: image+.cue
Битрейт аудио: lossless
Продолжительность: 0:54:33
Источник: Оригинальный диск из личной коллекции
Наличие сканов в содержимом раздачи: да (PNG 300dpi)
Треклист:
1. Crazy Horse - 4:05
2. Overlord - 6:05
3. Parade Of The Dead - 3:37
4. Darkest Days - 4:17
5. Black Sunday - 3:23
6. Southern Dissolution - 4:56
7. Time Waits For No One - 3:36
8. Godspeed Hellbound - 4:43
9. War Of Heaven - 4:09
10. Shallow Grave - 3:37
11. Chupacabra - 0:49
12. Riders Of The Damned - 3:24
13. January - 2:24
14. Junior's Eyes (Black Sabbath Cover) (Japanese Bonus Track) - 5:27

Лог создания рипа

Exact Audio Copy V1.0 beta 3 from 29. August 2011
EAC extraction logfile from 7. October 2013, 22:01
Black Label Society / Order Of The Black (Japan VICP-64858)
Used drive : PIONEER DVD-RW DVR-219L Adapter: 1 ID: 0
Read mode : SecureUtilize accurate stream : YesDefeat audio cache : YesMake use of C2 pointers : No
Read offset correction : 6Overread into Lead-In and Lead-Out : NoFill up missing offset samples with silence : YesDelete leading and trailing silent blocks : NoNull samples used in CRC calculations : YesUsed interface : Native Win32 interface for Win NT & 2000
Used output format : Internal WAV RoutinesSample format : 44.100 Hz; 16 Bit; Stereo
TOC of the extracted CD
Track | Start | Length | Start sector | End sector --------------------------------------------------------- 1 | 0:00.00 | 4:04.40 | 0 | 18339 2 | 4:04.40 | 6:05.12 | 18340 | 45726 3 | 10:09.52 | 3:36.49 | 45727 | 61975 4 | 13:46.26 | 4:17.29 | 61976 | 81279 5 | 18:03.55 | 3:23.25 | 81280 | 96529 6 | 21:27.05 | 4:56.34 | 96530 | 118763 7 | 26:23.39 | 3:36.14 | 118764 | 134977 8 | 29:59.53 | 4:43.34 | 134978 | 156236 9 | 34:43.12 | 4:09.05 | 156237 | 174916 10 | 38:52.17 | 3:37.30 | 174917 | 191221 11 | 42:29.47 | 0:49.02 | 191222 | 194898 12 | 43:18.49 | 3:23.45 | 194899 | 210168 13 | 46:42.19 | 2:23.74 | 210169 | 220967 14 | 49:06.18 | 5:26.48 | 220968 | 245465
Range status and errors
Selected range
Filename D:\.www.AvaxHome.ru\Black Label Society - Order Of The Black (Japan VICP-64858).wav
Peak level 99.9 % Extraction speed 7.1 X Range quality 99.9 % Test CRC F92FF151 Copy CRC F92FF151 Copy OK
No errors occurred
AccurateRip summary
Track 1 accurately ripped (confidence 3) [DF0C8C47] (AR v2)Track 2 accurately ripped (confidence 3) [9BE13A92] (AR v2)Track 3 accurately ripped (confidence 3) [F95C9677] (AR v2)Track 4 accurately ripped (confidence 3) [59043B9E] (AR v2)Track 5 accurately ripped (confidence 3) [6BC55A38] (AR v2)Track 6 accurately ripped (confidence 3) [84A1D7AD] (AR v2)Track 7 accurately ripped (confidence 3) [F9F03F66] (AR v2)Track 8 accurately ripped (confidence 3) [BC50294D] (AR v2)Track 9 accurately ripped (confidence 3) [7E4890D1] (AR v2)Track 10 accurately ripped (confidence 3) [EEA4E027] (AR v2)Track 11 accurately ripped (confidence 3) [99AC4129] (AR v2)Track 12 accurately ripped (confidence 3) [76F07D95] (AR v2)Track 13 accurately ripped (confidence 3) [93F2E5B1] (AR v2)Track 14 accurately ripped (confidence 3) [D270B101] (AR v2)
All tracks accurately ripped
End of status report
---- CUETools DB Plugin V2.1.3
[CTDB TOCID: fNvjqaCnaoeamQOlhIBAcdFZlJQ-] found, Submit result: fNvjqaCnaoeamQOlhIBAcdFZlJQ- has been confirmed[e628e7f1] (8/8) Accurately ripped

2011 - The Song Remains Not The Same

Страна-производитель диска: US
Год издания диска: 2011
Издатель (лейбл): eOne Music
Номер по каталогу: EOM-CD-2363
Аудио кодек: FLAC (*.flac)
Тип рипа: image+.cue
Битрейт аудио: lossless
Продолжительность: 0:41:17
Источник: Оригинальный диск из личной коллекции
Наличие сканов в содержимом раздачи: да (PNG 300dpi)
Треклист:
1. Overlord - 5:07
2. Parade Of The Dead - 3:55
3. Riders Of The Damned - 3:47
4. Darkest Days - 4:05
5. Juniors Eyes - 5:27
6. Helpless - 4:37
7. Bridge Over Troubled Water - 3:42
8. Can't Find My Way Home - 3:39
9. Darkest Days (John Rich Album Version) - 4:05
10. The First Noel - 2:54

Лог создания рипа

Exact Audio Copy V1.0 beta 3 from 29. August 2011
EAC extraction logfile from 9. October 2013, 18:38
Black Label Society / The Song Remains Not The Same
Used drive : PIONEER DVD-RW DVR-219L Adapter: 1 ID: 0
Read mode : SecureUtilize accurate stream : YesDefeat audio cache : YesMake use of C2 pointers : No
Read offset correction : 6Overread into Lead-In and Lead-Out : NoFill up missing offset samples with silence : YesDelete leading and trailing silent blocks : NoNull samples used in CRC calculations : YesUsed interface : Native Win32 interface for Win NT & 2000
Used output format : Internal WAV RoutinesSample format : 44.100 Hz; 16 Bit; Stereo
TOC of the extracted CD
Track | Start | Length | Start sector | End sector --------------------------------------------------------- 1 | 0:00.00 | 5:06.54 | 0 | 23003 2 | 5:06.54 | 3:55.06 | 23004 | 40634 3 | 9:01.60 | 3:46.63 | 40635 | 57647 4 | 12:48.48 | 4:05.29 | 57648 | 76051 5 | 16:54.02 | 5:26.38 | 76052 | 100539 6 | 22:20.40 | 4:36.58 | 100540 | 121297 7 | 26:57.23 | 3:42.26 | 121298 | 137973 8 | 30:39.49 | 3:38.38 | 137974 | 154361 9 | 34:18.12 | 4:04.68 | 154362 | 172729 10 | 38:23.05 | 2:54.06 | 172730 | 185785
Range status and errors
Selected range
Filename D:\.www.AvaxHome.ru\Black Label Society - The Song Remains Not The Same.wav
Peak level 99.9 % Extraction speed 6.6 X Range quality 100.0 % Test CRC 151405E8 Copy CRC 151405E8 Copy OK
No errors occurred
AccurateRip summary
Track 1 accurately ripped (confidence 25) [A9C7D4FF] (AR v2)Track 2 accurately ripped (confidence 25) [A19519E6] (AR v2)Track 3 accurately ripped (confidence 25) [82B3EF07] (AR v2)Track 4 accurately ripped (confidence 25) [A588737B] (AR v2)Track 5 accurately ripped (confidence 25) [9FF1618B] (AR v2)Track 6 accurately ripped (confidence 25) [EEDDC339] (AR v2)Track 7 accurately ripped (confidence 25) [BD2B23CF] (AR v2)Track 8 accurately ripped (confidence 25) [CFDE0C6A] (AR v2)Track 9 accurately ripped (confidence 24) [061174B9] (AR v2)Track 10 accurately ripped (confidence 24) [DCA844BE] (AR v2)
All tracks accurately ripped
End of status report
---- CUETools DB Plugin V2.1.4
[CTDB TOCID: NuVbCk4ygiAEz11FxTngfXIDY6U-] foundSubmit result: NuVbCk4ygiAEz11FxTngfXIDY6U- has been confirmedTrack | CTDB Status 1 | (17/17) Accurately ripped 2 | (17/17) Accurately ripped 3 | (17/17) Accurately ripped 4 | (17/17) Accurately ripped 5 | (17/17) Accurately ripped 6 | (17/17) Accurately ripped 7 | (17/17) Accurately ripped 8 | (17/17) Accurately ripped 9 | (17/17) Accurately ripped 10 | (17/17) Accurately ripped
==== Log checksum 1854EBDBAFBD522B5286FEF05925CC9CD1894F095D3B428095E0DDC32A412A89 ====

2013 - Unblackened (2CD)

Страна-производитель диска: Japan
Год издания диска: 2013
Издатель (лейбл): Panworkz
Номер по каталогу: VQCD 10345/6
Аудио кодек: FLAC (*.flac)
Тип рипа: image+.cue
Битрейт аудио: lossless
Продолжительность: 1:04:39 + 1:00:03
Источник: Оригинальный диск из личной коллекции
Наличие сканов в содержимом раздачи: да (PNG 300dpi)
CD1 Треклист:
1. Losin' Your Mind - 5:47
2. The Blessed Hellride - 4:23
3. Sold My Soul - 7:36
4. Road Back Home - 6:10
5. Spoke in the Wheel - 5:17
6. House of Doom - 4:22
7. Queen of Sorrow - 3:48
8. Machine Gun Man - 4:51
9. Sweet Jesus - 4:38
10. In This River - 6:41
11. Throwin' it All Away - 11:07
CD2 Треклист:
1. Takillya (Estyabon) - 1:39
2. Won't Find It Here - 8:47
3. Rust - 5:27
4. Speedball - 1:05
5. I Thank You Child - 5:02
6. Stillborn - 8:25
7. Ain't No Sunshine When She's Gone (Bonus Track)- 3:31
8. Lovin' Woman (Bonus Version) - 5:05
9. Queen Of Sorrow (Unblackened recorded studio version) - 4:14
10. Song For You (Bonus Track)- 5:08
11. Won't Find It Here (Unblackened recorded studio version) - 6:55
12. Yesterday, Today, Tomorrow (Unblackened recorded studio version) - 4:45

CD1 Лог создания рипа

Exact Audio Copy V1.0 beta 3 from 29. August 2011
EAC extraction logfile from 30. September 2013, 19:04
Black Label Society / Unblackened (Japan VQCD 10345, CD1)
Used drive : PIONEER DVD-RW DVR-219L Adapter: 1 ID: 0
Read mode : SecureUtilize accurate stream : YesDefeat audio cache : YesMake use of C2 pointers : No
Read offset correction : 6Overread into Lead-In and Lead-Out : NoFill up missing offset samples with silence : YesDelete leading and trailing silent blocks : NoNull samples used in CRC calculations : YesUsed interface : Native Win32 interface for Win NT & 2000
Used output format : Internal WAV RoutinesSample format : 44.100 Hz; 16 Bit; Stereo
TOC of the extracted CD
Track | Start | Length | Start sector | End sector --------------------------------------------------------- 1 | 0:00.00 | 5:47.27 | 0 | 26051 2 | 5:47.27 | 4:22.67 | 26052 | 45768 3 | 10:10.19 | 7:35.57 | 45769 | 79950 4 | 17:46.01 | 6:09.65 | 79951 | 107690 5 | 23:55.66 | 5:16.60 | 107691 | 131450 6 | 29:12.51 | 4:21.57 | 131451 | 151082 7 | 33:34.33 | 3:47.52 | 151083 | 168159 8 | 37:22.10 | 4:51.05 | 168160 | 189989 9 | 42:13.15 | 4:38.10 | 189990 | 210849 10 | 46:51.25 | 6:41.00 | 210850 | 240924 11 | 53:32.25 | 11:06.50 | 240925 | 290924
Range status and errors
Selected range
Filename D:\.www.AvaxHome.ru\Black Label Society - Unblackened (Japan VQCD 10345, CD1).wav
Peak level 100.0 % Extraction speed 7.8 X Range quality 100.0 % Test CRC 51D52D22 Copy CRC 51D52D22 Copy OK
No errors occurred
AccurateRip summary
Track 1 not present in databaseTrack 2 not present in databaseTrack 3 not present in databaseTrack 4 not present in databaseTrack 5 not present in databaseTrack 6 not present in databaseTrack 7 not present in databaseTrack 8 not present in databaseTrack 9 not present in databaseTrack 10 not present in databaseTrack 11 not present in database
None of the tracks are present in the AccurateRip database
End of status report
---- CUETools DB Plugin V2.1.3
[CTDB TOCID: 8W24hxrar.X5ABysSSibzxYuBTQ-] disk not present in database, Submit result: 8W24hxrar.X5ABysSSibzxYuBTQ- has been uploaded

CD2 Лог создания рипа

Exact Audio Copy V1.0 beta 3 from 29. August 2011
EAC extraction logfile from 30. September 2013, 19:31
Black Label Society / Unblackened (Japan VQCD 10346, CD2)
Used drive : PIONEER DVD-RW DVR-219L Adapter: 1 ID: 0
Read mode : SecureUtilize accurate stream : YesDefeat audio cache : YesMake use of C2 pointers : No
Read offset correction : 6Overread into Lead-In and Lead-Out : NoFill up missing offset samples with silence : YesDelete leading and trailing silent blocks : NoNull samples used in CRC calculations : YesUsed interface : Native Win32 interface for Win NT & 2000
Used output format : Internal WAV RoutinesSample format : 44.100 Hz; 16 Bit; Stereo
TOC of the extracted CD
Track | Start | Length | Start sector | End sector --------------------------------------------------------- 1 | 0:00.00 | 1:38.72 | 0 | 7421 2 | 1:38.72 | 8:47.22 | 7422 | 46968 3 | 10:26.19 | 5:26.70 | 46969 | 71488 4 | 15:53.14 | 1:04.50 | 71489 | 76338 5 | 16:57.64 | 5:01.72 | 76339 | 98985 6 | 21:59.61 | 8:24.42 | 98986 | 136827 7 | 30:24.28 | 3:31.02 | 136828 | 152654 8 | 33:55.30 | 5:04.42 | 152655 | 175496 9 | 38:59.72 | 4:14.32 | 175497 | 194578 10 | 43:14.29 | 5:07.67 | 194579 | 217670 11 | 48:22.21 | 6:55.22 | 217671 | 248817 12 | 55:17.43 | 4:45.30 | 248818 | 270222
Range status and errors
Selected range
Filename D:\.www.AvaxHome.ru\Black Label Society - Unblackened (Japan VQCD 10346, CD2).wav
Peak level 100.0 % Extraction speed 7.7 X Range quality 100.0 % Test CRC 5092F02A Copy CRC 5092F02A Copy OK
No errors occurred
AccurateRip summary
Track 1 not present in databaseTrack 2 not present in databaseTrack 3 not present in databaseTrack 4 not present in databaseTrack 5 not present in databaseTrack 6 not present in databaseTrack 7 not present in databaseTrack 8 not present in databaseTrack 9 not present in databaseTrack 10 not present in databaseTrack 11 not present in databaseTrack 12 not present in database
None of the tracks are present in the AccurateRip database
End of status report
---- CUETools DB Plugin V2.1.3
[CTDB TOCID: PHJ_eD3L_s6RuN6k_snznc2qPqs-] disk not present in database, Submit result: PHJ_eD3L_s6RuN6k_snznc2qPqs- has been uploaded

2014 - Catacombs Of The Black Vatican

2014 - Catacombs Of The Black Vatican (EU, Mascot Records M 7437 5)

Страна-производитель диска: EU
Год издания диска: 2014
Издатель (лейбл): Mascot Records
Номер по каталогу: M 7437 5
Аудио кодек: FLAC (*.flac)
Тип рипа: image+.cue
Битрейт аудио: lossless
Продолжительность: 0:54:38
Источник: Оригинальный диск из личной коллекции
Наличие сканов в содержимом раздачи: да (PNG 300dpi)
Треклист:
1. Fields of Unforgiveness - 3:15
2. My Dying Time - 3:24
3. Believe - 3:47
4. Angel Of Mercy - 4:17
5. Heart Of Darkness - 3:41
6. Beyond The Down - 2:57
7. Scars - 4:16
8. Damn The Flood - 3:21
9. I've Gone Away - 3:54
10. Empty Promises - 5:19
11. Shades Of Gray - 6:31
12. Dark Side Of The Sun (Bonus Track) - 5:22
13. Blind Man (EU Bonus Track) - 4:36

Лог создания рипа

Exact Audio Copy V1.0 beta 3 from 29. August 2011
EAC extraction logfile from 6. June 2014, 21:15
Black Label Society / Catacombs Of The Black Vatican (Black Edition, M 7437 5)
Used drive : PIONEER DVD-RW DVR-219L Adapter: 1 ID: 0
Read mode : SecureUtilize accurate stream : YesDefeat audio cache : YesMake use of C2 pointers : No
Read offset correction : 6Overread into Lead-In and Lead-Out : NoFill up missing offset samples with silence : YesDelete leading and trailing silent blocks : NoNull samples used in CRC calculations : YesUsed interface : Native Win32 interface for Win NT & 2000
Used output format : Internal WAV RoutinesSample format : 44.100 Hz; 16 Bit; Stereo
TOC of the extracted CD
Track | Start | Length | Start sector | End sector --------------------------------------------------------- 1 | 0:00.00 | 3:14.57 | 0 | 14606 2 | 3:14.57 | 3:24.22 | 14607 | 29928 3 | 6:39.04 | 3:46.42 | 29929 | 46920 4 | 10:25.46 | 4:16.58 | 46921 | 66178 5 | 14:42.29 | 3:41.33 | 66179 | 82786 6 | 18:23.62 | 2:56.60 | 82787 | 96046 7 | 21:20.47 | 4:15.67 | 96047 | 115238 8 | 25:36.39 | 3:20.65 | 115239 | 130303 9 | 28:57.29 | 3:53.53 | 130304 | 147831 10 | 32:51.07 | 5:18.42 | 147832 | 171723 11 | 38:09.49 | 6:30.70 | 171724 | 201043 12 | 44:40.44 | 5:21.40 | 201044 | 225158 13 | 50:02.09 | 4:35.69 | 225159 | 245852
Range status and errors
Selected range
Filename D:\.www.AvaxHome.ru\Black Label Society - Catacombs Of The Black Vatican (Black Edition, M 7437 5).wav
Peak level 100.0 % Extraction speed 7.1 X Range quality 100.0 % Test CRC 1A991123 Copy CRC 1A991123 Copy OK
No errors occurred
AccurateRip summary
Track 1 accurately ripped (confidence 10) [6C42DF27] (AR v2)Track 2 accurately ripped (confidence 10) [719E8A7F] (AR v2)Track 3 accurately ripped (confidence 10) [09C5FFD1] (AR v2)Track 4 accurately ripped (confidence 10) [F0E20FBC] (AR v2)Track 5 accurately ripped (confidence 10) [E495D62C] (AR v2)Track 6 accurately ripped (confidence 10) [40EE60E7] (AR v2)Track 7 accurately ripped (confidence 10) [DB4F0F9B] (AR v2)Track 8 accurately ripped (confidence 10) [A0D11376] (AR v2)Track 9 accurately ripped (confidence 10) [C77C5681] (AR v2)Track 10 accurately ripped (confidence 10) [FB79D2C7] (AR v2)Track 11 accurately ripped (confidence 10) [F4BCD94D] (AR v2)Track 12 accurately ripped (confidence 10) [A47E8A27] (AR v2)Track 13 accurately ripped (confidence 10) [75AE509B] (AR v2)
All tracks accurately ripped
End of status report
---- CUETools DB Plugin V2.1.4
[CTDB TOCID: rGcwGiD9gQ9xvsWdJ6uUYzzw2KI-] foundSubmit result: already submittedTrack | CTDB Status 1 | (10/10) Accurately ripped 2 | (10/10) Accurately ripped 3 | (10/10) Accurately ripped 4 | (10/10) Accurately ripped 5 | (10/10) Accurately ripped 6 | (10/10) Accurately ripped 7 | (10/10) Accurately ripped 8 | (10/10) Accurately ripped 9 | (10/10) Accurately ripped 10 | (10/10) Accurately ripped 11 | (10/10) Accurately ripped 12 | (10/10) Accurately ripped 13 | (10/10) Accurately ripped
==== Log checksum 53186390F543F69EBAFA8F7B43A7673BDF55F8876686D6F4540F77744662F462 ====

2014 - Catacombs Of The Black Vatican (Japan, Avalon MICP-11144)

Страна-производитель диска: Japan
Год издания диска: 2014
Издатель (лейбл): Avalon
Номер по каталогу: MICP-11144
Аудио кодек: FLAC (*.flac)
Тип рипа: image+.cue
Битрейт аудио: lossless
Продолжительность: 0:54:03
Источник: Оригинальный диск из личной коллекции
Наличие сканов в содержимом раздачи: да (PNG 300dpi)
Треклист:
1. Fields Of Unforgiveness - 3:13
2. My Dying Time - 3:22
3. Believe - 3:45
4. Angel Of Mercy - 4:15
5. Heart Of Darkness - 3:39
6. Beyond The Down - 2:55
7. Scars - 4:14
8. Damn The Flood - 3:19
9. I've Gone Away - 3:52
10. Empty Promises - 5:17
11. Shades Of Gray - 6:29
12. Dark Side Of The Sun (Bonus Track) - 5:20
13. Hell And Fire (Japanese Bonus Track) - 4:25

Лог создания рипа

Exact Audio Copy V1.0 beta 3 from 29. August 2011
EAC extraction logfile from 14. April 2014, 13:29
Black Label Society / Catacombs Of The Black Vatican (Japan MICP-11144)
Used drive : PIONEER DVD-RW DVR-219L Adapter: 1 ID: 0
Read mode : SecureUtilize accurate stream : YesDefeat audio cache : YesMake use of C2 pointers : No
Read offset correction : 6Overread into Lead-In and Lead-Out : NoFill up missing offset samples with silence : YesDelete leading and trailing silent blocks : NoNull samples used in CRC calculations : YesUsed interface : Native Win32 interface for Win NT & 2000
Used output format : Internal WAV RoutinesSample format : 44.100 Hz; 16 Bit; Stereo
TOC of the extracted CD
Track | Start | Length | Start sector | End sector --------------------------------------------------------- 1 | 0:00.00 | 3:12.48 | 0 | 14447 2 | 3:12.48 | 3:22.23 | 14448 | 29620 3 | 6:34.71 | 3:44.43 | 29621 | 46463 4 | 10:19.39 | 4:14.58 | 46464 | 65571 5 | 14:34.22 | 3:39.33 | 65572 | 82029 6 | 18:13.55 | 2:54.60 | 82030 | 95139 7 | 21:08.40 | 4:13.68 | 95140 | 114182 8 | 25:22.33 | 3:18.65 | 114183 | 129097 9 | 28:41.23 | 3:51.53 | 129098 | 146475 10 | 32:33.01 | 5:16.43 | 146476 | 170218 11 | 37:49.44 | 6:28.70 | 170219 | 199388 12 | 44:18.39 | 5:19.40 | 199389 | 223353 13 | 49:38.04 | 4:25.05 | 223354 | 243233
Range status and errors
Selected range
Filename D:\.www.AvaxHome.ru\Black Label Society - Catacombs Of The Black Vatican (Japan MICP-11144).wav
Peak level 100.0 % Extraction speed 7.0 X Range quality 100.0 % Copy CRC F015E865 Copy OK
No errors occurred
AccurateRip summary
Track 1 not present in databaseTrack 2 not present in databaseTrack 3 not present in databaseTrack 4 not present in databaseTrack 5 not present in databaseTrack 6 not present in databaseTrack 7 not present in databaseTrack 8 not present in databaseTrack 9 not present in databaseTrack 10 not present in databaseTrack 11 not present in databaseTrack 12 not present in databaseTrack 13 not present in database
None of the tracks are present in the AccurateRip database
End of status report
---- CUETools DB Plugin V2.1.4
[CTDB TOCID: qymj5a8aAuVlcNX.E3m4u1wv314-] disk not present in databaseSubmit result: qymj5a8aAuVlcNX.E3m4u1wv314- has been uploaded
==== Log checksum 51B046B6170EEA4F0E3AB59EC894799148DCC9E6EBC715DAA43D4CCBF4D7B5AE ====

2014 - Catacombs Of The Black Vatican (US, eOne Music EOM-CD-9407)

Страна-производитель диска: US
Год издания диска: 2014
Издатель (лейбл): eOne Music
Номер по каталогу: EOM-CD-9407
Аудио кодек: FLAC (*.flac)
Тип рипа: image+.cue
Битрейт аудио: lossless
Продолжительность: 0:54:05
Источник: Оригинальный диск из личной коллекции
Наличие сканов в содержимом раздачи: да (PNG 300dpi)
Треклист:
01. Fields Of Unforgiveness - 3:13
02. My Dying Time - 3:22
03. Believe - 3:45
04. Angel Of Mercy - 4:15
05. Heart Of Darkness - 3:39
06. Beyond The Down - 2:55
07. Scars - 4:14
08. Damn The Flood - 3:19
09. I've Gone Away - 3:52
10. Empty Promises - 5:17
11. Shades Of Gray - 6:29
12. Dark Side Of The Sun (Bonus Track) - 5:20
13. The Nomad (US Bonus Track) - 4:27

Лог создания рипа

Exact Audio Copy V1.0 beta 3 from 29. August 2011
EAC extraction logfile from 6. June 2014, 20:26
Black Label Society / Catacombs Of The Black Vatican (US, EOM-CD-9407)
Used drive : PIONEER DVD-RW DVR-219L Adapter: 1 ID: 0
Read mode : SecureUtilize accurate stream : YesDefeat audio cache : YesMake use of C2 pointers : No
Read offset correction : 6Overread into Lead-In and Lead-Out : NoFill up missing offset samples with silence : YesDelete leading and trailing silent blocks : NoNull samples used in CRC calculations : YesUsed interface : Native Win32 interface for Win NT & 2000
Used output format : Internal WAV RoutinesSample format : 44.100 Hz; 16 Bit; Stereo
TOC of the extracted CD
Track | Start | Length | Start sector | End sector --------------------------------------------------------- 1 | 0:00.00 | 3:12.47 | 0 | 14446 2 | 3:12.47 | 3:22.22 | 14447 | 29618 3 | 6:34.69 | 3:44.42 | 29619 | 46460 4 | 10:19.36 | 4:14.57 | 46461 | 65567 5 | 14:34.18 | 3:39.32 | 65568 | 82024 6 | 18:13.50 | 2:54.60 | 82025 | 95134 7 | 21:08.35 | 4:13.67 | 95135 | 114176 8 | 25:22.27 | 3:18.65 | 114177 | 129091 9 | 28:41.17 | 3:51.52 | 129092 | 146468 10 | 32:32.69 | 5:16.42 | 146469 | 170210 11 | 37:49.36 | 6:28.70 | 170211 | 199380 12 | 44:18.31 | 5:19.40 | 199381 | 223345 13 | 49:37.71 | 4:26.42 | 223346 | 243337
Range status and errors
Selected range
Filename D:\.www.AvaxHome.ru\Black Label Society - Catacombs Of The Black Vatican (US, EOM-CD-9407).wav
Peak level 100.0 % Extraction speed 7.1 X Range quality 100.0 % Test CRC A267FE93 Copy CRC A267FE93 Copy OK
No errors occurred
AccurateRip summary
Track 1 accurately ripped (confidence 6) [B19249EB] (AR v2)Track 2 accurately ripped (confidence 6) [0CBB7991] (AR v2)Track 3 accurately ripped (confidence 6) [9AB5DFB5] (AR v2)Track 4 accurately ripped (confidence 6) [9956326E] (AR v2)Track 5 accurately ripped (confidence 6) [02C3FC8C] (AR v2)Track 6 accurately ripped (confidence 6) [F6774A71] (AR v2)Track 7 accurately ripped (confidence 6) [D0C542C4] (AR v2)Track 8 accurately ripped (confidence 6) [8FAA3F55] (AR v2)Track 9 accurately ripped (confidence 6) [A5B3E2C5] (AR v2)Track 10 accurately ripped (confidence 6) [C6832695] (AR v2)Track 11 accurately ripped (confidence 5) [1649D929] (AR v2)Track 12 accurately ripped (confidence 5) [912188B5] (AR v2)Track 13 accurately ripped (confidence 6) [D2C85953] (AR v2)
All tracks accurately ripped
End of status report
---- CUETools DB Plugin V2.1.4
[CTDB TOCID: 7ZP_DTPchDmM38xMJJlpqA83hJo-] foundSubmit result: 7ZP_DTPchDmM38xMJJlpqA83hJo- has been confirmedTrack | CTDB Status 1 | (11/11) Accurately ripped 2 | (11/11) Accurately ripped 3 | (11/11) Accurately ripped 4 | (11/11) Accurately ripped 5 | (11/11) Accurately ripped 6 | (11/11) Accurately ripped 7 | (11/11) Accurately ripped 8 | (11/11) Accurately ripped 9 | (11/11) Accurately ripped 10 | (11/11) Accurately ripped 11 | (11/11) Accurately ripped 12 | (11/11) Accurately ripped 13 | (11/11) Accurately ripped
==== Log checksum 04F968E26008621326B110D6F4BBD303DDFC861F1EEF39C137A1A85E695F2ACB ====

2018 - Grimmest Hits

Страна-производитель диска: Japan
Год издания диска: 2018
Издатель (лейбл): Universal Music
Номер по каталогу: UICO-1301
Аудио кодек: FLAC (*.flac)
Тип рипа: image+.cue
Битрейт аудио: lossless
Продолжительность: 1:04:36
Источник: Оригинальный диск из личной коллекции
Наличие сканов в содержимом раздачи: да (PNG 300dpi)
Треклист:
01. Trampled Down Below - 5:02
02. Seasons Of Falter - 4:01
03. The Betrayal - 3:48
04. All That Once Shined - 3:55
05. The Only Words - 5:29
06. Room Of Nightmares - 2:32
07. A Love Unreal - 5:59
08. Disbelief - 5:28
09. The Day That Heaven Had Gone Away - 6:13
10. Illusions Of Peace - 4:07
11. Bury Your Sorrow - 4:42
12. Nothing Left To Say - 4:22
13. Disbelief (Unblackened Version) (Japanese Bonus Track) - 5:09
14. The Only Words (Unblackened Version) (Japanese Bonus Track) - 3:50

Лог создания рипа

Exact Audio Copy V1.3 from 2. September 2016
EAC extraction logfile from 30. January 2018, 11:49
Black Label Society / Grimmest Hits (Japan, UICO-1301)
Used drive : ASUS DRW-24D5MT Adapter: 1 ID: 0
Read mode : SecureUtilize accurate stream : YesDefeat audio cache : YesMake use of C2 pointers : No
Read offset correction : 6Overread into Lead-In and Lead-Out : NoFill up missing offset samples with silence : YesDelete leading and trailing silent blocks : NoNull samples used in CRC calculations : YesUsed interface : Native Win32 interface for Win NT & 2000
Used output format : Internal WAV RoutinesSample format : 44.100 Hz; 16 Bit; Stereo
TOC of the extracted CD
Track | Start | Length | Start sector | End sector --------------------------------------------------------- 1 | 0:00.00 | 5:02.28 | 0 | 22677 2 | 5:02.28 | 4:00.68 | 22678 | 40745 3 | 9:03.21 | 3:48.07 | 40746 | 57852 4 | 12:51.28 | 3:54.55 | 57853 | 75457 5 | 16:46.08 | 5:29.20 | 75458 | 100152 6 | 22:15.28 | 2:31.70 | 100153 | 111547 7 | 24:47.23 | 5:58.58 | 111548 | 138455 8 | 30:46.06 | 5:28.02 | 138456 | 163057 9 | 36:14.08 | 6:12.48 | 163058 | 191005 10 | 42:26.56 | 4:07.05 | 191006 | 209535 11 | 46:33.61 | 4:41.45 | 209536 | 230655 12 | 51:15.31 | 4:22.11 | 230656 | 250316 13 | 55:37.42 | 5:08.60 | 250317 | 273476 14 | 60:46.27 | 3:49.47 | 273477 | 290698
Range status and errors
Selected range
Filename Z:\by Necromandus\Black Label Society - Grimmest Hits (Japan, UICO-1301).wav
Peak level 100.0 % Extraction speed 6.4 X Range quality 100.0 % Test CRC EAF5CB57 Copy CRC EAF5CB57 Copy OK
No errors occurred
AccurateRip summary
Track 1 not present in databaseTrack 2 not present in databaseTrack 3 not present in databaseTrack 4 not present in databaseTrack 5 not present in databaseTrack 6 not present in databaseTrack 7 not present in databaseTrack 8 not present in databaseTrack 9 not present in databaseTrack 10 not present in databaseTrack 11 not present in databaseTrack 12 not present in databaseTrack 13 not present in databaseTrack 14 not present in database
None of the tracks are present in the AccurateRip database
End of status report
---- CUETools DB Plugin V2.1.6
[CTDB TOCID: f6GAkMNUk4M42NWxi.Kuuo9lU7c-] foundSubmit result: f6GAkMNUk4M42NWxi.Kuuo9lU7c- has been confirmedTrack | CTDB Status 1 | (4/4) Accurately ripped 2 | (4/4) Accurately ripped 3 | (4/4) Accurately ripped 4 | (4/4) Accurately ripped 5 | (4/4) Accurately ripped 6 | (4/4) Accurately ripped 7 | (4/4) Accurately ripped 8 | (4/4) Accurately ripped 9 | (4/4) Accurately ripped 10 | (4/4) Accurately ripped 11 | (4/4) Accurately ripped 12 | (4/4) Accurately ripped 13 | (4/4) Accurately ripped 14 | (4/4) Accurately ripped
==== Log checksum 0A33449DCDD1D0352F7817E128B0EA465C37A97B6FB9E3F4E63BCA9830F93A10 ====
Как скачать отдельный файл;
[url=http://********.wiki/%D0%9A%D0%B0%D0%BA_%D0%B4%D0%BE%D0%BA%D0%B0%D1%87%D0%B0%D1%82%D1%8C_%D0%BF%D1%80%D0%BE%D0%BF%D1%83%D1%89%D0%B5%D0%BD%D0%BD%D1%8B%D0%B5_%D1%84%D0%B0%D0%B9%D0%BB%D1%8B_%D1%82%D0%BE%D1%80%D1%80%D0%B5%D0%BD%D1%82%D0%B0]Как докачать пропущенные файлы торрента;[/url]
Чем можно послушать музыку в lossless;
Как создать Audio диск из Lossless образа;
Как порезать образ на треки
Ознакомившись, приобретайте, пожалуйста, оригинальную продукцию!!!
Если не покупать диски, то совсем скоро нечего будет качать...

If you like the topic, please click share to help develop our site.

To download the file disable ad blocking, and reload the page.

disable adblock How to disable ad blocking?

Download by magnet link 14.25 GB Download Torrent

Login using:

Similar topics

(Southern Metal ) Heavy As Texas - Heavy As Texas - 2019, MP3, 320 kbps
 84 MB   0 | 0   08-Apr-19 23:30   0
(Heavy | Doom Metal) The Ossuary - Southern Funeral - 2018, MP3, 320 kbps
 104 MB   0 | 0   02-Dec-18 21:30   5


   
Current time is: 27-Jun 09:49 :: All times are UTC + 3