Стань легендой! Бигфут Младший / The Son of Bigfoot
Страна: Франция, Бельгия
Жанр: мультфильм, комедия
Продолжительность: 01:31:15
Год выпуска: 2017
Перевод: Профессиональный (дублированный)
Оригинальная аудиодорожка: Английский
Русские субтитры: нет--Режиссёр: Жереми Дегрусон / Jeremy Degruson, Бен Стассен / Ben Stassen--Роли озвучивали: Синда Адамс, Боб Барлен, Кэллан Брункер, Джои Камен, Дэвид Эпштейн, Кристофер Л. Парсон, Джо Томас, Мариев Херингтон, Алексис Лэнг, Юрий Ловенталь...--Описание: Обычный подросток по имени Адам отправляется на поиски своего давно пропавшего отца и попадает в приключение мифических масштабов. Его мир переворачивается вверх дном, когда оказывается, что в нем течет кровь последних легендарных хранителей леса - бигфутов. Теперь ему открыты такие способности как суперскорость, живительное прикосновение и возможность понимать язык животных.--Доп. информация: | IMDB | КиноПоиск | Сэмпл | --Качество: BDRip 1080 Исходник. Blu-Ray 1080p - BLUEBIRD
Формат: MKV
Видео: AVC, 1920x804 (2.40:1), 9071 kbps, 24.000 fps, 0.245 bit/pixel
Аудио 1: DTS Audio, 3/2 (L,C,R,l,r) + LFE ch, 48 kHz, 1509 kbps, 24-bit
Аудио 2: DTS Audio, 3/2 (L,C,R,l,r) + LFE ch, 48 kHz, 1509 kbps, 24-bit
Субтитры: Английские (Полные, SDH)

Скриншоты

Подробные технические данные

x264

raw [info]: 1920x804p 1:1 @ 10000000/416667 fps (cfr)
x264 [info]: using SAR=1/1
x264 [info]: using cpu capabilities: MMX2 SSE2Fast SSSE3 SSE4.2 AVX
x264 [info]: profile High, level 4.1
x264 [info]: frame I:1197 Avg QP:14.21 size:250713
x264 [info]: frame P:35922 Avg QP:15.78 size: 88391
x264 [info]: frame B:94287 Avg QP:17.63 size: 28984
x264 [info]: consecutive B-frames: 3.7% 5.8% 10.1% 53.1% 18.7% 5.9% 1.2% 0.3% 0.7% 0.2% 0.1% 0.0% 0.1% 0.0% 0.1% 0.0% 0.2%
x264 [info]: mb I I16..4: 14.4% 50.2% 35.5%
x264 [info]: mb P I16..4: 4.8% 17.2% 7.8% P16..4: 24.7% 18.2% 14.2% 0.0% 0.0% skip:13.0%
x264 [info]: mb B I16..4: 1.1% 3.8% 1.3% B16..8: 26.9% 10.9% 3.4% direct: 7.9% skip:44.8% L0:35.1% L1:42.7% BI:22.2%
x264 [info]: 8x8 transform intra:58.4% inter:39.8%
x264 [info]: coded y,uvDC,uvAC intra: 85.9% 78.0% 58.8% inter: 26.2% 21.3% 6.6%
x264 [info]: i16 v,h,dc,p: 24% 19% 28% 29%
x264 [info]: i8 v,h,dc,ddl,ddr,vr,hd,vl,hu: 19% 20% 16% 6% 7% 7% 8% 8% 10%
x264 [info]: i4 v,h,dc,ddl,ddr,vr,hd,vl,hu: 27% 17% 11% 6% 8% 9% 8% 7% 7%
x264 [info]: i8c dc,h,v,p: 42% 27% 20% 11%
x264 [info]: Weighted P-Frames: Y:3.5% UV:2.5%
x264 [info]: ref P L0: 59.9% 12.5% 16.8% 5.0% 5.5% 0.2% 0.0%
x264 [info]: ref B L0: 85.0% 10.4% 3.6% 1.0%
x264 [info]: ref B L1: 96.8% 3.2%
x264 [info]: kb/s:9070.81
General
Unique ID : 216969629845438012326068159283114751377 (0xA33AD4A9AF79172182953B13D90B3591)
Complete name : The Son of Bigfoot (2017) 1080p.mkv
Format : Matroska
Format version : Version 4 / Version 2
File size : 7.71 GiB
Duration : 1 h 31 min
Overall bit rate : 12.1 Mb/s
Movie name : Стань легендой! Бигфут Младший / The Son of Bigfoot (2017)
Encoded date : UTC 2018-01-24 09:55:42
Writing application : mkvmerge v8.1.0 ('Psychedelic Postcard') 64bit
Writing library : libebml v1.3.1 + libmatroska v1.4.2
Cover : Yes
Attachments : cover.jpg
Video
ID : 1
Format : AVC
Format/Info : Advanced Video Codec
Format profile : [email protected]
Format settings : CABAC / 5 Ref Frames
Format settings, CABAC : Yes
Format settings, ReFrames : 5 frames
Codec ID : V_MPEG4/ISO/AVC
Duration : 1 h 31 min
Bit rate : 9 071 kb/s
Width : 1 920 pixels
Height : 804 pixels
Display aspect ratio : 2.40:1
Frame rate mode : Constant
Frame rate : 24.000 FPS
Color space : YUV
Chroma subsampling : 4:2:0
Bit depth : 8 bits
Scan type : Progressive
Bits/(Pixel*Frame) : 0.245
Stream size : 5.78 GiB (75%)
Title : The Son of Bigfoot (2017) By optik.1557
Writing library : x264 core 152 r2851kMod ba24899
Encoding settings : cabac=1 / ref=5 / deblock=1:-2:-1 / analyse=0x3:0x113 / me=umh / subme=10 / psy=1 / fade_compensate=0.00 / psy_rd=1.03:0.19 / mixed_ref=1 / me_range=32 / chroma_me=1 / trellis=2 / 8x8dct=1 / cqm=0 / deadzone=21,11 / fast_pskip=0 / chroma_qp_offset=-3 / threads=6 / lookahead_threads=1 / sliced_threads=0 / nr=0 / decimate=1 / interlaced=0 / bluray_compat=0 / constrained_intra=0 / bframes=16 / b_pyramid=2 / b_adapt=2 / b_bias=0 / direct=1 / weightb=1 / open_gop=0 / weightp=2 / keyint=250 / keyint_min=23 / scenecut=40 / intra_refresh=0 / rc_lookahead=60 / rc=crf / mbtree=0 / crf=16.4000 / qcomp=0.60 / qpmin=0 / qpmax=69 / qpstep=4 / vbv_maxrate=62500 / vbv_bufsize=78125 / crf_max=0.0 / nal_hrd=none / filler=0 / ip_ratio=1.40 / pb_ratio=1.30 / aq=3:0.85
Language : English
Default : Yes
Forced : No
Audio #1
ID : 2
Format : DTS
Format/Info : Digital Theater Systems
Codec ID : A_DTS
Duration : 1 h 31 min
Bit rate mode : Constant
Bit rate : 1 509 kb/s
Channel(s) : 6 channels
Channel positions : Front: L C R, Side: L R, LFE
Sampling rate : 48.0 kHz
Frame rate : 93.750 FPS (512 SPF)
Bit depth : 24 bits
Compression mode : Lossy
Stream size : 985 MiB (12%)
Title : Дубляж
Language : Russian
Default : Yes
Forced : No
Audio #2
ID : 3
Format : DTS
Format/Info : Digital Theater Systems
Codec ID : A_DTS
Duration : 1 h 31 min
Bit rate mode : Constant
Bit rate : 1 509 kb/s
Channel(s) : 6 channels
Channel positions : Front: L C R, Side: L R, LFE
Sampling rate : 48.0 kHz
Frame rate : 93.750 FPS (512 SPF)
Bit depth : 24 bits
Compression mode : Lossy
Stream size : 985 MiB (12%)
Title : Original
Language : English
Default : No
Forced : No
Text #1
ID : 4
Format : UTF-8
Codec ID : S_TEXT/UTF8
Codec ID/Info : UTF-8 Plain Text
Duration : 1 h 26 min
Bit rate : 57 b/s
Count of elements : 1254
Stream size : 36.8 KiB (0%)
Title : Full
Language : English
Default : No
Forced : No
Text #2
ID : 5
Format : UTF-8
Codec ID : S_TEXT/UTF8
Codec ID/Info : UTF-8 Plain Text
Duration : 1 h 31 min
Bit rate : 72 b/s
Count of elements : 1691
Stream size : 48.3 KiB (0%)
Title : SDH
Language : English
Default : No
Forced : No
Menu
00:00:00.000 : en:Chapter 1
00:00:25.708 : en:Chapter 2
00:09:52.250 : en:Chapter 3
00:20:05.625 : en:Chapter 4
00:31:35.750 : en:Chapter 5
00:42:31.458 : en:Chapter 6
00:55:00.166 : en:Chapter 7
01:03:24.041 : en:Chapter 8
01:16:09.833 : en:Chapter 9

If you like the topic, please click share to help develop our site.

To download the file disable ad blocking, and reload the page.

disable adblock How to disable ad blocking?

Download by magnet link 7.71 GB Download Torrent

Login using:

Similar topics



   
Current time is: 27-Jun 09:00 :: All times are UTC + 3