Стань легендой! Бигфут Младший / The Son of Bigfoot
Страна: Франция, Бельгия
Жанр: мультфильм, комедия
Продолжительность: 01:31:15
Год выпуска: 2017
Перевод: Профессиональный (дублированный)
Оригинальная аудиодорожка: Английский
Русские субтитры: нет--Режиссёр: Жереми Дегрусон / Jeremy Degruson, Бен Стассен / Ben Stassen--Роли озвучивали: Синда Адамс, Боб Барлен, Кэллан Брункер, Джои Камен, Дэвид Эпштейн, Кристофер Л. Парсон, Джо Томас, Мариев Херингтон, Алексис Лэнг, Юрий Ловенталь...--Описание: Обычный подросток по имени Адам отправляется на поиски своего давно пропавшего отца и попадает в приключение мифических масштабов. Его мир переворачивается вверх дном, когда оказывается, что в нем течет кровь последних легендарных хранителей леса - бигфутов. Теперь ему открыты такие способности как суперскорость, живительное прикосновение и возможность понимать язык животных.--Доп. информация: | IMDB | КиноПоиск | Сэмпл | --Качество: BDRip 720 Исходник. Blu-Ray 1080p - BLUEBIRD
Формат: MKV
Видео: AVC, 1280x536 (2.40:1), 3978 kbps, 24.000 fps, 0.242 bit/pixel
Аудио 1: AC3 Dolby Digital, 3/2 (L,C,R,l,r) + LFE ch, 48.0 KHz, 640 Kbps
Аудио 2: AC3 Dolby Digital, 3/2 (L,C,R,l,r) + LFE ch, 48.0 KHz, 640 Kbps
Субтитры: Английские (Полные, SDH)

Скриншоты

Подробные технические данные

x264

raw [info]: 1280x536p 1:1 @ 10000000/416667 fps (cfr)
x264 [info]: using SAR=1/1
x264 [info]: using cpu capabilities: MMX2 SSE2Fast SSSE3 SSE4.2 AVX
x264 [info]: profile High, level 4.1
x264 [info]: frame I:1305 Avg QP:14.83 size:138369
x264 [info]: frame P:33796 Avg QP:16.62 size: 40062
x264 [info]: frame B:96305 Avg QP:18.83 size: 12338
x264 [info]: consecutive B-frames: 3.2% 4.5% 9.7% 46.8% 18.3% 12.2% 2.3% 0.8% 1.0% 0.8% 0.1% 0.3%
x264 [info]: mb I I16..4: 9.5% 52.9% 37.6%
x264 [info]: mb P I16..4: 1.6% 15.3% 4.8% P16..4: 24.7% 19.6% 16.8% 0.0% 0.0% skip:17.1%
x264 [info]: mb B I16..4: 0.3% 2.6% 0.7% B16..8: 25.3% 10.8% 4.0% direct: 6.0% skip:50.2% L0:35.0% L1:41.0% BI:24.0%
x264 [info]: 8x8 transform intra:69.1% inter:44.3%
x264 [info]: coded y,uvDC,uvAC intra: 88.5% 82.9% 68.9% inter: 22.6% 18.1% 7.1%
x264 [info]: i16 v,h,dc,p: 19% 15% 15% 51%
x264 [info]: i8 v,h,dc,ddl,ddr,vr,hd,vl,hu: 17% 18% 13% 6% 8% 8% 9% 9% 12%
x264 [info]: i4 v,h,dc,ddl,ddr,vr,hd,vl,hu: 16% 13% 6% 8% 13% 11% 12% 9% 11%
x264 [info]: i8c dc,h,v,p: 41% 26% 19% 14%
x264 [info]: Weighted P-Frames: Y:4.1% UV:2.9%
x264 [info]: ref P L0: 55.6% 13.4% 14.6% 4.3% 3.8% 2.7% 2.6% 1.4% 1.5% 0.1% 0.0%
x264 [info]: ref B L0: 80.8% 9.1% 4.1% 2.1% 1.5% 1.3% 0.9% 0.3%
x264 [info]: ref B L1: 95.8% 4.2%
x264 [info]: kb/s:3978.17
General
Unique ID : 196094878402470115232963052826018664097 (0x93867FF4928AB4F68F9EE16175474EA1)
Complete name : The Son of Bigfoot (2017).mkv
Format : Matroska
Format version : Version 4 / Version 2
File size : 3.35 GiB
Duration : 1 h 31 min
Overall bit rate : 5 261 kb/s
Movie name : Стань легендой! Бигфут Младший / The Son of Bigfoot (2017)
Encoded date : UTC 2018-01-23 07:40:32
Writing application : mkvmerge v8.1.0 ('Psychedelic Postcard') 64bit
Writing library : libebml v1.3.1 + libmatroska v1.4.2
Cover : Yes
Attachments : cover.jpg
Video
ID : 1
Format : AVC
Format/Info : Advanced Video Codec
Format profile : [email protected]
Format settings : CABAC / 9 Ref Frames
Format settings, CABAC : Yes
Format settings, ReFrames : 9 frames
Codec ID : V_MPEG4/ISO/AVC
Duration : 1 h 31 min
Bit rate : 3 978 kb/s
Width : 1 280 pixels
Height : 536 pixels
Display aspect ratio : 2.40:1
Frame rate mode : Constant
Frame rate : 24.000 FPS
Color space : YUV
Chroma subsampling : 4:2:0
Bit depth : 8 bits
Scan type : Progressive
Bits/(Pixel*Frame) : 0.242
Stream size : 2.54 GiB (76%)
Title : The Son of Bigfoot (2017) By optik.1557
Writing library : x264 core 152 r2851kMod ba24899
Encoding settings : cabac=1 / ref=9 / deblock=1:-2:-1 / analyse=0x3:0x113 / me=umh / subme=10 / psy=1 / fade_compensate=0.00 / psy_rd=1.03:0.19 / mixed_ref=1 / me_range=32 / chroma_me=1 / trellis=2 / 8x8dct=1 / cqm=0 / deadzone=21,11 / fast_pskip=0 / chroma_qp_offset=-3 / threads=6 / lookahead_threads=1 / sliced_threads=0 / nr=0 / decimate=1 / interlaced=0 / bluray_compat=0 / constrained_intra=0 / bframes=11 / b_pyramid=2 / b_adapt=2 / b_bias=0 / direct=1 / weightb=1 / open_gop=0 / weightp=2 / keyint=250 / keyint_min=23 / scenecut=40 / intra_refresh=0 / rc_lookahead=60 / rc=crf / mbtree=0 / crf=16.2000 / qcomp=0.60 / qpmin=0 / qpmax=69 / qpstep=4 / vbv_maxrate=50000 / vbv_bufsize=62500 / crf_max=0.0 / nal_hrd=none / filler=0 / ip_ratio=1.40 / pb_ratio=1.30 / aq=3:0.85
Language : English
Default : Yes
Forced : No
Audio #1
ID : 2
Format : AC-3
Format/Info : Audio Coding 3
Codec ID : A_AC3
Duration : 1 h 31 min
Bit rate mode : Constant
Bit rate : 640 kb/s
Channel(s) : 6 channels
Channel positions : Front: L C R, Side: L R, LFE
Sampling rate : 48.0 kHz
Frame rate : 31.250 FPS (1536 SPF)
Bit depth : 16 bits
Compression mode : Lossy
Stream size : 418 MiB (12%)
Title : Дубляж
Language : Russian
Service kind : Complete Main
Default : Yes
Forced : No
Audio #2
ID : 3
Format : AC-3
Format/Info : Audio Coding 3
Codec ID : A_AC3
Duration : 1 h 31 min
Bit rate mode : Constant
Bit rate : 640 kb/s
Channel(s) : 6 channels
Channel positions : Front: L C R, Side: L R, LFE
Sampling rate : 48.0 kHz
Frame rate : 31.250 FPS (1536 SPF)
Bit depth : 16 bits
Compression mode : Lossy
Stream size : 418 MiB (12%)
Title : Original
Language : English
Service kind : Complete Main
Default : No
Forced : No
Text #1
ID : 4
Format : UTF-8
Codec ID : S_TEXT/UTF8
Codec ID/Info : UTF-8 Plain Text
Duration : 1 h 26 min
Bit rate : 57 b/s
Count of elements : 1254
Stream size : 36.8 KiB (0%)
Title : Full
Language : English
Default : No
Forced : No
Text #2
ID : 5
Format : UTF-8
Codec ID : S_TEXT/UTF8
Codec ID/Info : UTF-8 Plain Text
Duration : 1 h 31 min
Bit rate : 72 b/s
Count of elements : 1691
Stream size : 48.3 KiB (0%)
Title : SDH
Language : English
Default : No
Forced : No
Menu
00:00:00.000 : en:Chapter 1
00:00:25.708 : en:Chapter 2
00:09:52.250 : en:Chapter 3
00:20:05.625 : en:Chapter 4
00:31:35.750 : en:Chapter 5
00:42:31.458 : en:Chapter 6
00:55:00.166 : en:Chapter 7
01:03:24.041 : en:Chapter 8
01:16:09.833 : en:Chapter 9

If you like the topic, please click share to help develop our site.

To download the file disable ad blocking, and reload the page.

disable adblock How to disable ad blocking?

Download by magnet link 3.35 GB Download Torrent

Login using:

Similar topics



   
Current time is: 17-Jun 02:34 :: All times are UTC + 3