Реальная белка 2 / The Nut Job 2: Nutty by Nature
Страна: Канада, Корея Южная, США
Жанр: мультфильм, комедия, приключения, семейный
Продолжительность: 01:31:13
Год выпуска: 2017
Перевод: Профессиональный (дублированный) iTunes
Оригинальная аудиодорожка: Английский
Русские субтитры: Есть--Режиссёр: Кэллан Брункер / Callan Brunker--Роли озвучивали: Уилл Арнетт, Кэтрин Хейгл, Майя Рудольф, Джеки Чан, Изабела Монер, Петер Стормаре, Бобби Каннавейл, Бобби Мойнахан, Джефф Данэм, Габриэль Иглесиас...--Описание: В продолжении веселых хвостатых приключений белке Злюку и его друзьям снова нужно действовать сообща. На сей раз — чтобы спасти свой дом: мэр города задумал вырубить их парк и построить на его месте бездушные аттракционы... К счастью, у Злюка и других любителей арахиса есть план, не последняя роль в котором отведена новым друзьям наших героев — белым мышам под предводительством мудрого мистера Фэнга.--Доп. информация: | IMDB | КиноПоиск | Сэмпл | --Качество: BDRip 720p The Nut Job 2: Nutty by Nature. 2017. BDRemux.1080p. NNMClub
Формат: MKV
Видео: AVC, 1280x690 (1.85:1), 5476 kbps, 23.976 fps, 0.259 bit/pixel
Аудио 1: AC3 Dolby Digital, 3/2 (L,C,R,l,r) + LFE ch, 48.0 KHz, 384 Kbps
Аудио 2: AC3 Dolby Digital, 3/2 (L,C,R,l,r) + LFE ch, 48.0 KHz, 640 Kbps
Субтитры: Русские (Полные), Английские (Full, SDH, SDH-Colored)

Скриншоты

Подробные технические данные

x264

raw [info]: 1280x690p 1:1 @ 24000/1001 fps (cfr)
x264 [info]: using SAR=1/1
x264 [info]: using cpu capabilities: MMX2 SSE2Fast SSSE3 SSE4.2 AVX
x264 [info]: profile High, level 4.1
x264 [info]: frame I:1078 Avg QP:13.67 size:180377
x264 [info]: frame P:34993 Avg QP:14.88 size: 54547
x264 [info]: frame B:95157 Avg QP:17.08 size: 17272
x264 [info]: consecutive B-frames: 3.8% 4.9% 21.4% 25.7% 14.5% 25.5% 2.0% 1.1% 1.0%
x264 [info]: mb I I16..4: 12.0% 61.7% 26.3%
x264 [info]: mb P I16..4: 2.5% 21.8% 4.1% P16..4: 24.4% 18.4% 14.2% 0.0% 0.0% skip:14.6%
x264 [info]: mb B I16..4: 0.5% 3.3% 0.7% B16..8: 27.5% 11.4% 3.7% direct: 6.4% skip:46.5% L0:40.8% L1:39.2% BI:20.0%
x264 [info]: 8x8 transform intra:74.8% inter:50.0%
x264 [info]: coded y,uvDC,uvAC intra: 86.8% 93.3% 83.5% inter: 22.0% 24.5% 12.3%
x264 [info]: i16 v,h,dc,p: 37% 9% 13% 41%
x264 [info]: i8 v,h,dc,ddl,ddr,vr,hd,vl,hu: 14% 16% 13% 7% 9% 9% 10% 10% 13%
x264 [info]: i4 v,h,dc,ddl,ddr,vr,hd,vl,hu: 20% 10% 5% 7% 13% 12% 12% 9% 11%
x264 [info]: i8c dc,h,v,p: 41% 24% 17% 19%
x264 [info]: Weighted P-Frames: Y:3.4% UV:2.7%
x264 [info]: ref P L0: 54.8% 10.9% 14.9% 5.4% 4.4% 3.0% 2.9% 1.6% 1.8% 0.1% 0.0%
x264 [info]: ref B L0: 74.3% 11.3% 5.7% 3.1% 2.2% 1.8% 1.2% 0.4%
x264 [info]: ref B L1: 95.0% 5.0%
x264 [info]: kb/s:5476.34
General
Unique ID : 245942346412779309318902353213475164453 (0xB906C5E05FB3B7BAB0D5414BEF769125)
Complete name : The Nut Job 2 (2017).mkv
Format : Matroska
Format version : Version 4 / Version 2
File size : 4.14 GiB
Duration : 1 h 31 min
Overall bit rate : 6 493 kb/s
Movie name : Реальная белка 2 / The Nut Job 2: Nutty by Nature (2017)
Encoded date : UTC 2018-01-14 16:01:39
Writing application : mkvmerge v8.1.0 ('Psychedelic Postcard') 64bit
Writing library : libebml v1.3.1 + libmatroska v1.4.2
Cover : Yes
Attachments : cover.jpg
Video
ID : 1
Format : AVC
Format/Info : Advanced Video Codec
Format profile : [email protected]
Format settings : CABAC / 9 Ref Frames
Format settings, CABAC : Yes
Format settings, ReFrames : 9 frames
Codec ID : V_MPEG4/ISO/AVC
Duration : 1 h 31 min
Bit rate : 5 476 kb/s
Width : 1 280 pixels
Height : 690 pixels
Display aspect ratio : 1.85:1
Frame rate mode : Constant
Frame rate : 23.976 (24000/1001) FPS
Color space : YUV
Chroma subsampling : 4:2:0
Bit depth : 8 bits
Scan type : Progressive
Bits/(Pixel*Frame) : 0.259
Stream size : 3.49 GiB (84%)
Title : The Nut Job 2: Nutty by Natur (2017) By optik.1557
Writing library : x264 core 152 r2851kMod ba24899
Encoding settings : cabac=1 / ref=9 / deblock=1:-2:-1 / analyse=0x3:0x113 / me=umh / subme=10 / psy=1 / fade_compensate=0.00 / psy_rd=1.03:0.19 / mixed_ref=1 / me_range=32 / chroma_me=1 / trellis=2 / 8x8dct=1 / cqm=0 / deadzone=21,11 / fast_pskip=0 / chroma_qp_offset=-3 / threads=6 / lookahead_threads=1 / sliced_threads=0 / nr=0 / decimate=1 / interlaced=0 / bluray_compat=0 / constrained_intra=0 / bframes=8 / b_pyramid=2 / b_adapt=2 / b_bias=0 / direct=1 / weightb=1 / open_gop=0 / weightp=2 / keyint=250 / keyint_min=23 / scenecut=40 / intra_refresh=0 / rc_lookahead=60 / rc=crf / mbtree=0 / crf=16.4000 / qcomp=0.60 / qpmin=0 / qpmax=69 / qpstep=4 / vbv_maxrate=50000 / vbv_bufsize=62500 / crf_max=0.0 / nal_hrd=none / filler=0 / ip_ratio=1.40 / pb_ratio=1.30 / aq=3:0.85
Language : English
Default : Yes
Forced : No
Audio #1
ID : 2
Format : AC-3
Format/Info : Audio Coding 3
Codec ID : A_AC3
Duration : 1 h 31 min
Bit rate mode : Constant
Bit rate : 384 kb/s
Channel(s) : 6 channels
Channel positions : Front: L C R, Side: L R, LFE
Sampling rate : 48.0 kHz
Frame rate : 31.250 FPS (1536 SPF)
Bit depth : 16 bits
Compression mode : Lossy
Stream size : 250 MiB (6%)
Title : Дубляж (iTunes)
Language : Russian
Service kind : Complete Main
Default : Yes
Forced : No
Audio #2
ID : 3
Format : AC-3
Format/Info : Audio Coding 3
Codec ID : A_AC3
Duration : 1 h 31 min
Bit rate mode : Constant
Bit rate : 640 kb/s
Channel(s) : 6 channels
Channel positions : Front: L C R, Side: L R, LFE
Sampling rate : 48.0 kHz
Frame rate : 31.250 FPS (1536 SPF)
Bit depth : 16 bits
Compression mode : Lossy
Stream size : 418 MiB (10%)
Title : Original
Language : English
Service kind : Complete Main
Default : No
Forced : No
Text #1
ID : 4
Format : UTF-8
Codec ID : S_TEXT/UTF8
Codec ID/Info : UTF-8 Plain Text
Duration : 1 h 22 min
Bit rate : 89 b/s
Count of elements : 1742
Stream size : 54.6 KiB (0%)
Title : Полные
Language : Russian
Default : No
Forced : No
Text #2
ID : 5
Format : UTF-8
Codec ID : S_TEXT/UTF8
Codec ID/Info : UTF-8 Plain Text
Duration : 1 h 22 min
Bit rate : 66 b/s
Count of elements : 1450
Stream size : 40.3 KiB (0%)
Title : Full
Language : English
Default : No
Forced : No
Text #3
ID : 6
Format : UTF-8
Codec ID : S_TEXT/UTF8
Codec ID/Info : UTF-8 Plain Text
Duration : 1 h 29 min
Bit rate : 72 b/s
Count of elements : 1767
Stream size : 47.6 KiB (0%)
Title : SDH
Language : English
Default : No
Forced : No
Text #4
ID : 7
Format : UTF-8
Codec ID : S_TEXT/UTF8
Codec ID/Info : UTF-8 Plain Text
Duration : 1 h 30 min
Bit rate : 138 b/s
Count of elements : 1667
Stream size : 91.6 KiB (0%)
Title : SDH-Colored
Language : English
Default : No
Forced : No
Menu
00:00:00.000 : en:1
00:09:27.000 : en:2
00:19:44.000 : en:3
00:28:20.000 : en:4
00:36:35.000 : en:5
00:47:52.000 : en:6
00:58:57.000 : en:7
01:06:56.000 : en:8
01:16:29.000 : en:9
01:27:54.000 : en:10

If you like the topic, please click share to help develop our site.

To download the file disable ad blocking, and reload the page.

disable adblock How to disable ad blocking?

Download by magnet link 4.14 GB Download Torrent

Login using:

Similar topics



   
Current time is: 27-Jun 09:01 :: All times are UTC + 3