Балерина / Ballerina
«Чудеса начинаются с мечты!»
-- Страна: Франция, Канада
Жанр: мультфильм, мюзикл, комедия, приключения, семейный
Продолжительность: 01:29:23
Год выпуска: 2016
Перевод: Профессиональный (дублированный)
Русские субтитры: нет--Режиссёр: Эрик Саммер / Eric Summer, Эрик Уорин / Éric Warin--Роли озвучивали: Эль Фаннинг, Карли Рэй Джепсен, Мэдди Зиглер, Терренс Скаммелл, Tamir Kapelian, Джули Ханер, Джо Шеридан, Элана Дункельман, Шошана Спелинг, Джэми Уотсон...--Описание: События развернутся вокруг маленькой сиротки, которая, следуя за мечтой стать балериной, приезжает в Париж в 1879 году.--Доп. информация: | IMDB | КиноПоиск | Сэмпл | --Качество: BDRip 1080p BD-Remux 1080p HDClub
Формат: MKV
Видео: AVC, 1920x804 (2.40:1), 6805 kbps, 24.000 fps, 0.184 bit/pixel
Аудио 1: DTS Audio, 3/2 (L,C,R,l,r) + LFE ch, 48 kHz, 1509 kbps, 24-bit | Дубляж. Русский |
Аудио 2: DTS Audio, 3/2 (L,C,R,l,r) + LFE ch, 48 kHz, 1509 kbps, 24-bit | Дубляж. Английский |
Аудио 3: DTS Audio, 3/2 (L,C,R,l,r) + LFE ch, 48 kHz, 1509 kbps, 24-bit | Оригинал. Французский |
Субтитры: Английские, Французские

Скриншоты

Подробные технические данные

x264

raw [info]: 1920x804p 1:1 @ 10000000/416667 fps (cfr)
x264 [info]: using SAR=1/1
x264 [info]: using cpu capabilities: MMX2 SSE2Fast SSSE3 SSE4.2 AVX
x264 [info]: profile High, level 4.1
x264 [info]: frame I:1163 Avg QP:12.68 size:232505
x264 [info]: frame P:34106 Avg QP:14.27 size: 71014
x264 [info]: frame B:93457 Avg QP:16.95 size: 20008
x264 [info]: consecutive B-frames: 3.1% 4.8% 10.9% 54.4% 11.6% 9.6% 3.4% 1.6% 0.1% 0.1% 0.1% 0.0% 0.0% 0.0% 0.0% 0.0% 0.2%
x264 [info]: mb I I16..4: 12.3% 64.2% 23.5%
x264 [info]: mb P I16..4: 2.5% 16.9% 3.2% P16..4: 26.0% 19.9% 14.4% 0.0% 0.0% skip:17.1%
x264 [info]: mb B I16..4: 0.3% 1.9% 0.4% B16..8: 29.7% 10.6% 2.9% direct: 5.1% skip:49.1% L0:38.9% L1:41.7% BI:19.4%
x264 [info]: 8x8 transform intra:73.0% inter:41.8%
x264 [info]: coded y,uvDC,uvAC intra: 85.4% 88.6% 78.1% inter: 16.3% 15.8% 7.9%
x264 [info]: i16 v,h,dc,p: 23% 14% 20% 44%
x264 [info]: i8 v,h,dc,ddl,ddr,vr,hd,vl,hu: 16% 17% 19% 6% 7% 8% 8% 8% 10%
x264 [info]: i4 v,h,dc,ddl,ddr,vr,hd,vl,hu: 24% 12% 7% 7% 12% 11% 10% 8% 8%
x264 [info]: i8c dc,h,v,p: 43% 24% 19% 14%
x264 [info]: Weighted P-Frames: Y:1.7% UV:1.4%
x264 [info]: ref P L0: 59.3% 8.9% 18.1% 7.5% 6.1% 0.2% 0.0%
x264 [info]: ref B L0: 82.6% 12.0% 4.1% 1.3%
x264 [info]: ref B L1: 95.5% 4.5%
x264 [info]: kb/s:6804.91
General
Unique ID : 200012456708444856465324066304549970320 (0x9678FF7A78D7588787C2A1589603E190)
Complete name : Ballerina (2016) BDRip 1080p.mkv
Format : Matroska
Format version : Version 4 / Version 2
File size : 7.07 GiB
Duration : 1 h 29 min
Overall bit rate : 11.3 Mb/s
Movie name : Балерина / Ballerina (2016) BDRip 1080
Encoded date : UTC 2018-01-04 20:36:26
Writing application : mkvmerge v8.1.0 ('Psychedelic Postcard') 64bit
Writing library : libebml v1.3.1 + libmatroska v1.4.2
Cover : Yes
Attachments : cover.jpg
Video
ID : 1
Format : AVC
Format/Info : Advanced Video Codec
Format profile : [email protected]
Format settings : CABAC / 5 Ref Frames
Format settings, CABAC : Yes
Format settings, ReFrames : 5 frames
Codec ID : V_MPEG4/ISO/AVC
Duration : 1 h 29 min
Bit rate : 6 805 kb/s
Width : 1 920 pixels
Height : 804 pixels
Display aspect ratio : 2.40:1
Frame rate mode : Constant
Frame rate : 24.000 FPS
Color space : YUV
Chroma subsampling : 4:2:0
Bit depth : 8 bits
Scan type : Progressive
Bits/(Pixel*Frame) : 0.184
Stream size : 4.25 GiB (60%)
Title : Ballerina (2016) By optik.1557
Writing library : x264 core 152 r2851kMod ba24899
Encoding settings : cabac=1 / ref=5 / deblock=1:-2:-1 / analyse=0x3:0x113 / me=umh / subme=10 / psy=1 / fade_compensate=0.00 / psy_rd=1.03:0.19 / mixed_ref=1 / me_range=32 / chroma_me=1 / trellis=2 / 8x8dct=1 / cqm=0 / deadzone=21,11 / fast_pskip=0 / chroma_qp_offset=-3 / threads=6 / lookahead_threads=1 / sliced_threads=0 / nr=0 / decimate=1 / interlaced=0 / bluray_compat=0 / constrained_intra=0 / bframes=16 / b_pyramid=2 / b_adapt=2 / b_bias=0 / direct=1 / weightb=1 / open_gop=0 / weightp=2 / keyint=250 / keyint_min=23 / scenecut=40 / intra_refresh=0 / rc_lookahead=60 / rc=crf / mbtree=0 / crf=16.7000 / qcomp=0.60 / qpmin=0 / qpmax=69 / qpstep=4 / vbv_maxrate=62500 / vbv_bufsize=78125 / crf_max=0.0 / nal_hrd=none / filler=0 / ip_ratio=1.40 / pb_ratio=1.30 / aq=3:0.85
Language : French
Default : Yes
Forced : No
Color range : Limited
Color primaries : BT.709
Transfer characteristics : BT.709
Matrix coefficients : BT.709
Audio #1
ID : 2
Format : DTS
Format/Info : Digital Theater Systems
Codec ID : A_DTS
Duration : 1 h 28 min
Bit rate mode : Constant
Bit rate : 1 509 kb/s
Channel(s) : 6 channels
Channel positions : Front: L C R, Side: L R, LFE
Sampling rate : 48.0 kHz
Frame rate : 93.750 FPS (512 SPF)
Bit depth : 24 bits
Compression mode : Lossy
Stream size : 954 MiB (13%)
Title : Дубляж
Language : Russian
Default : Yes
Forced : No
Audio #2
ID : 3
Format : DTS
Format/Info : Digital Theater Systems
Codec ID : A_DTS
Duration : 1 h 29 min
Bit rate mode : Constant
Bit rate : 1 509 kb/s
Channel(s) : 6 channels
Channel positions : Front: L C R, Side: L R, LFE
Sampling rate : 48.0 kHz
Frame rate : 93.750 FPS (512 SPF)
Bit depth : 24 bits
Compression mode : Lossy
Stream size : 966 MiB (13%)
Title : Dubbing. English (UK/Canada)
Language : English
Default : No
Forced : No
Audio #3
ID : 4
Format : DTS
Format/Info : Digital Theater Systems
Codec ID : A_DTS
Duration : 1 h 29 min
Bit rate mode : Constant
Bit rate : 1 509 kb/s
Channel(s) : 6 channels
Channel positions : Front: L C R, Side: L R, LFE
Sampling rate : 48.0 kHz
Frame rate : 93.750 FPS (512 SPF)
Bit depth : 24 bits
Compression mode : Lossy
Stream size : 965 MiB (13%)
Title : Original
Language : French
Default : No
Forced : No
Text #1
ID : 5
Format : UTF-8
Codec ID : S_TEXT/UTF8
Codec ID/Info : UTF-8 Plain Text
Duration : 1 h 27 min
Bit rate : 57 b/s
Count of elements : 1331
Stream size : 36.9 KiB (0%)
Language : English
Default : No
Forced : No
Text #2
ID : 6
Format : UTF-8
Codec ID : S_TEXT/UTF8
Codec ID/Info : UTF-8 Plain Text
Duration : 1 h 27 min
Bit rate : 43 b/s
Count of elements : 1087
Stream size : 27.7 KiB (0%)
Language : French
Default : No
Forced : No
Menu
00:00:00.000 : en:00:00:00.000
00:04:54.000 : en:00:04:54.000
00:10:58.292 : en:00:10:58.292
00:13:54.125 : en:00:13:54.125
00:18:00.875 : en:00:18:00.875
00:23:18.750 : en:00:23:18.750
00:28:03.542 : en:00:28:03.542
00:32:55.000 : en:00:32:55.000
00:36:14.458 : en:00:36:14.458
00:41:19.833 : en:00:41:19.833
00:44:54.708 : en:00:44:54.708
00:50:25.000 : en:00:50:25.000
00:56:41.792 : en:00:56:41.792
01:02:39.458 : en:01:02:39.458
01:08:48.750 : en:01:08:48.750
01:13:12.667 : en:01:13:12.667
01:17:43.958 : en:01:17:43.958
01:22:49.917 : en:01:22:49.917

If you like the topic, please click share to help develop our site.

To download the file disable ad blocking, and reload the page.

disable adblock How to disable ad blocking?

Download by magnet link 7.07 GB Download Torrent

Login using:

Similar topics

Балерина / Ballerina (2016) BDRemux [H.264/1080p]
 22.12 GB   2 | 2   06-Nov-17 03:26   3
Балерина / Ballerina (2016) BDRip [H.264/720p]
 3.99 GB   0 | 0   06-Nov-17 03:26   0


   
Current time is: 27-Jun 09:26 :: All times are UTC + 3