Балерина / Ballerina
«Никогда не отказывайся от своей мечты»
-- Страна: Франция, Канада
Жанр: мультфильм, мюзикл, комедия, приключения, семейный
Продолжительность: 01:29:23
Год выпуска: 2016
Перевод: Профессиональный (дублированный)
Русские субтитры: нет--Режиссёр: Эрик Саммер / Eric Summer, Эрик Уорин / Éric Warin--Роли озвучивали: Эль Фаннинг, Карли Рэй Джепсен, Мэдди Зиглер, Терренс Скаммелл, Tamir Kapelian, Джули Ханер, Джо Шеридан, Элана Дункельман, Шошана Спелинг, Джэми Уотсон...--Описание: События развернутся вокруг маленькой сиротки, которая, следуя за мечтой стать балериной, приезжает в Париж в 1879 году.--Доп. информация: | IMDB | КиноПоиск | Сэмпл | --Качество: BDRip 720p BD-Remux 1080p HDClub
Формат: MKV
Видео: AVC, 1280x536, (2.40:1), 4090 kbps, 24.000 fps, 0.248 bit/pixel
Аудио 1: AC3 Dolby Digital, 3/2 (L,C,R,l,r) + LFE ch, 48.0 KHz, 640 Kbps | Дубляж. Русский |
Аудио 2: AC3 Dolby Digital, 3/2 (L,C,R,l,r) + LFE ch, 48.0 KHz, 384 Kbps | Дубляж. Украинский |
Аудио 3: AC3 Dolby Digital, 3/2 (L,C,R,l,r) + LFE ch, 48.0 KHz, 640 Kbps | Дубляж. Английский |
Аудио 4: AC3 Dolby Digital, 3/2 (L,C,R,l,r) + LFE ch, 48.0 KHz, 640 Kbps | Оригинал. Французский |
Субтитры: Английские, Французские

Скриншоты

Подробные технические данные

x264

raw [info]: 1280x536p 1:1 @ 10000000/416667 fps (cfr)
x264 [info]: using SAR=1/1
x264 [info]: using cpu capabilities: MMX2 SSE2Fast SSSE3 SSE4.2 AVX
x264 [info]: profile High, level 4.1
x264 [info]: frame I:1272 Avg QP:11.79 size:143645
x264 [info]: frame P:32344 Avg QP:13.87 size: 43827
x264 [info]: frame B:95110 Avg QP:16.25 size: 12010
x264 [info]: consecutive B-frames: 2.6% 3.7% 10.1% 49.6% 13.8% 14.1% 3.0% 1.6% 0.2% 0.9% 0.1% 0.2%
x264 [info]: mb I I16..4: 13.9% 53.9% 32.2%
x264 [info]: mb P I16..4: 2.5% 14.5% 4.2% P16..4: 22.7% 20.2% 19.4% 0.0% 0.0% skip:16.5%
x264 [info]: mb B I16..4: 0.2% 1.7% 0.4% B16..8: 26.2% 12.2% 4.6% direct: 5.8% skip:48.9% L0:38.4% L1:37.4% BI:24.2%
x264 [info]: 8x8 transform intra:67.4% inter:35.4%
x264 [info]: coded y,uvDC,uvAC intra: 92.0% 93.1% 87.6% inter: 19.4% 18.5% 11.5%
x264 [info]: i16 v,h,dc,p: 17% 10% 32% 41%
x264 [info]: i8 v,h,dc,ddl,ddr,vr,hd,vl,hu: 19% 18% 18% 6% 7% 7% 8% 8% 10%
x264 [info]: i4 v,h,dc,ddl,ddr,vr,hd,vl,hu: 15% 12% 6% 8% 13% 12% 12% 10% 10%
x264 [info]: i8c dc,h,v,p: 44% 22% 19% 15%
x264 [info]: Weighted P-Frames: Y:1.9% UV:1.4%
x264 [info]: ref P L0: 54.8% 9.9% 15.4% 6.0% 4.3% 3.3% 2.7% 1.7% 1.7% 0.1% 0.0%
x264 [info]: ref B L0: 78.4% 10.6% 4.8% 2.3% 1.6% 1.2% 0.8% 0.3%
x264 [info]: ref B L1: 95.1% 4.9%
x264 [info]: kb/s:4090.63
General
Unique ID : 185196484189757180285064423701849725824 (0x8B538BA2963E7316B81292E337B25B80)
Complete name : Ballerina (2016).mkv
Format : Matroska
Format version : Version 4 / Version 2
File size : 4.00 GiB
Duration : 1 h 29 min
Overall bit rate : 6 361 kb/s
Movie name : Балерина / Ballerina (2016)
Encoded date : UTC 2017-12-18 09:45:56
Writing application : mkvmerge v8.1.0 ('Psychedelic Postcard') 64bit
Writing library : libebml v1.3.1 + libmatroska v1.4.2
Cover : Yes
Attachments : cover.jpg
Video
ID : 1
Format : AVC
Format/Info : Advanced Video Codec
Format profile : [email protected]
Format settings : CABAC / 9 Ref Frames
Format settings, CABAC : Yes
Format settings, ReFrames : 9 frames
Codec ID : V_MPEG4/ISO/AVC
Duration : 1 h 29 min
Bit rate : 4 091 kb/s
Width : 1 280 pixels
Height : 536 pixels
Display aspect ratio : 2.40:1
Frame rate mode : Constant
Frame rate : 24.000 FPS
Color space : YUV
Chroma subsampling : 4:2:0
Bit depth : 8 bits
Scan type : Progressive
Bits/(Pixel*Frame) : 0.248
Stream size : 2.55 GiB (64%)
Title : Ballerina (2016) By optik.1557
Writing library : x264 core 148 r2744kMod b97ae06
Encoding settings : cabac=1 / ref=9 / deblock=1:-2:-1 / analyse=0x3:0x113 / me=umh / subme=10 / psy=1 / fade_compensate=0.00 / psy_rd=1.03:0.20 / mixed_ref=1 / me_range=32 / chroma_me=1 / trellis=2 / 8x8dct=1 / cqm=0 / deadzone=21,11 / fast_pskip=0 / chroma_qp_offset=-3 / threads=6 / lookahead_threads=1 / sliced_threads=0 / nr=0 / decimate=1 / interlaced=0 / bluray_compat=0 / constrained_intra=0 / bframes=11 / b_pyramid=2 / b_adapt=2 / b_bias=0 / direct=1 / weightb=1 / open_gop=0 / weightp=2 / keyint=250 / keyint_min=23 / scenecut=40 / intra_refresh=0 / rc_lookahead=60 / rc=crf / mbtree=0 / crf=15.1000 / qcomp=0.60 / qpmin=0 / qpmax=69 / qpstep=4 / vbv_maxrate=50000 / vbv_bufsize=62500 / crf_max=0.0 / nal_hrd=none / filler=0 / ip_ratio=1.40 / pb_ratio=1.30 / aq=3:0.85
Language : French
Default : Yes
Forced : No
Color range : Limited
Color primaries : BT.709
Transfer characteristics : BT.709
Matrix coefficients : BT.709
Audio #1
ID : 2
Format : AC-3
Format/Info : Audio Coding 3
Codec ID : A_AC3
Duration : 1 h 29 min
Bit rate mode : Constant
Bit rate : 640 kb/s
Channel(s) : 6 channels
Channel positions : Front: L C R, Side: L R, LFE
Sampling rate : 48.0 kHz
Frame rate : 31.250 FPS (1536 SPF)
Bit depth : 16 bits
Compression mode : Lossy
Stream size : 409 MiB (10%)
Title : Дубляж
Language : Russian
Service kind : Complete Main
Default : Yes
Forced : No
Audio #2
ID : 3
Format : AC-3
Format/Info : Audio Coding 3
Codec ID : A_AC3
Duration : 1 h 29 min
Bit rate mode : Constant
Bit rate : 384 kb/s
Channel(s) : 6 channels
Channel positions : Front: L C R, Side: L R, LFE
Sampling rate : 48.0 kHz
Frame rate : 31.250 FPS (1536 SPF)
Bit depth : 16 bits
Compression mode : Lossy
Stream size : 247 MiB (6%)
Title : Дубляж (iTunes)
Language : Ukrainian
Service kind : Complete Main
Default : No
Forced : No
Audio #3
ID : 4
Format : AC-3
Format/Info : Audio Coding 3
Codec ID : A_AC3
Duration : 1 h 29 min
Bit rate mode : Constant
Bit rate : 640 kb/s
Channel(s) : 6 channels
Channel positions : Front: L C R, Side: L R, LFE
Sampling rate : 48.0 kHz
Frame rate : 31.250 FPS (1536 SPF)
Bit depth : 16 bits
Compression mode : Lossy
Stream size : 410 MiB (10%)
Language : English
Service kind : Complete Main
Default : No
Forced : No
Audio #4
ID : 5
Format : AC-3
Format/Info : Audio Coding 3
Codec ID : A_AC3
Duration : 1 h 29 min
Bit rate mode : Constant
Bit rate : 640 kb/s
Channel(s) : 6 channels
Channel positions : Front: L C R, Side: L R, LFE
Sampling rate : 48.0 kHz
Frame rate : 31.250 FPS (1536 SPF)
Bit depth : 16 bits
Compression mode : Lossy
Stream size : 409 MiB (10%)
Language : French
Service kind : Complete Main
Default : No
Forced : No
Text #1
ID : 6
Format : UTF-8
Codec ID : S_TEXT/UTF8
Codec ID/Info : UTF-8 Plain Text
Duration : 1 h 27 min
Bit rate : 57 b/s
Count of elements : 1331
Stream size : 36.9 KiB (0%)
Language : English
Default : No
Forced : No
Text #2
ID : 7
Format : UTF-8
Codec ID : S_TEXT/UTF8
Codec ID/Info : UTF-8 Plain Text
Duration : 1 h 27 min
Bit rate : 43 b/s
Count of elements : 1087
Stream size : 27.7 KiB (0%)
Language : French
Default : No
Forced : No
Menu
00:00:00.000 : en:00:00:00.000
00:04:54.000 : en:00:04:54.000
00:10:58.292 : en:00:10:58.292
00:13:54.125 : en:00:13:54.125
00:18:00.875 : en:00:18:00.875
00:23:18.750 : en:00:23:18.750
00:28:03.542 : en:00:28:03.542
00:32:55.000 : en:00:32:55.000
00:36:14.458 : en:00:36:14.458
00:41:19.833 : en:00:41:19.833
00:44:54.708 : en:00:44:54.708
00:50:25.000 : en:00:50:25.000
00:56:41.792 : en:00:56:41.792
01:02:39.458 : en:01:02:39.458
01:08:48.750 : en:01:08:48.750
01:13:12.667 : en:01:13:12.667
01:17:43.958 : en:01:17:43.958
01:22:49.917 : en:01:22:49.917

If you like the topic, please click share to help develop our site.

To download the file disable ad blocking, and reload the page.

disable adblock How to disable ad blocking?

Download by magnet link 4 GB Download Torrent

Login using:

Similar topics

Балерина / Ballerina (2016) BDRemux [H.264/1080p]
 22.12 GB   2 | 1   06-Nov-17 03:26   3
Балерина / Ballerina (2016) BDRip [H.264/720p]
 3.99 GB   0 | 0   06-Nov-17 03:26   0
Балерина / Ballerina (2016) BDRip [H.264/1080p]
 5.56 GB   25 | 1   06-Nov-17 03:26   0


   
Current time is: 23-Apr 15:42 :: All times are UTC + 3