- Тесла. Рассекреченные архивы / Tesla's Death Ray: A Murder Declassified (2017) HDTVRip [H.264/720p-LQ] (Серии 1 из 6) - Производство: США, Sirens Media
Жанр: Документальный, наука, расследование, история
Описание:
7 января 1943 года в гостиничном номере в Нью-Йорке был найден мертвым «человек, который изобрел XX век» — физик, инженер и ученый Никола Тесла. Его сейф был взломан, и многие результаты исследований пропали без вести. Почти 70 лет все материалы дела были строго засекречены и оставались недоступны широкой общественности, и только в 2016 году ФБР обнародовало 250 документов, которые могут пролить свет на последние дни жизни и на загадочные обстоятельства смерти гениального изобретателя. На поиски ответов отправляется команда детективов. Героям предстоит не только выяснить, чем занимался в последние годы Никола Тесла, но и попытаться построить по его чертежам, вероятно, самое опасное оружие в мире.
Релиз от: Starik60
Продолжительность: серии x ~00:44:00
Качество видео: HDTVRip
Перевод: Двуголосый закадровый, профессиональный
Субтитры: отсутствуют
Видео: AVC/H.264, 1280x720, ~4000 Kbps
Аудио: MP2, 2 ch, 192 kbps

Mediainfo: (тех. данные всех серий идентичны)

Общее
Уникальный идентификатор : 15785796579734987550838055934850982830 (0xBE03BDC78EEAD1A0A66BA57046B63AE)
Полное имя : F:\КИНО\Тесла рассекреченные архивы 720p GeneralFilm\01 Тесла рассекреченные архивы GeneralFilm.mkv
Формат : Matroska
Версия формата : Version 2
Размер файла : 1,28 Гбайт
Продолжительность : 43 м. 41 с.
Режим общего битрейта : Постоянный
Общий поток : 4197 Кбит/сек
Программа кодирования : Lavf54.63.104
Библиотека кодирования : Lavf54.63.104
Видео
Идентификатор : 1
Формат : AVC
Формат/Информация : Advanced Video Codec
Профиль формата : [email protected]
Настройки формата : CABAC / 3 Ref Frames
Параметр CABAC формата : Да
Параметр RefFrames формата : 3 кадра
Идентификатор кодека : V_MPEG4/ISO/AVC
Продолжительность : 43 м. 41 с.
Вид битрейта : Постоянный
Битрейт : 4000 Кбит/сек
Ширина : 1280 пикселей
Высота : 720 пикселей
Соотношение сторон : 16:9
Режим частоты кадров : Постоянный
Частота кадров : 50,000 кадров/сек
Стандарт вещания : PAL
Цветовое пространство : YUV
Субдискретизация насыщенности : 4:2:0
Битовая глубина : 8 бит
Тип развёртки : Прогрессивная
Бит/(Пиксели*Кадры) : 0.087
Размер потока : 1,20 Гбайт (93%)
Default : Нет
Forced : Нет
Цветовой диапазон : Limited
Основные цвета : BT.709
Характеристики трансфера : BT.709
Коэффициенты матрицы : BT.709
Аудио
Идентификатор : 2
Формат : MPEG Audio
Версия формата : Version 1
Профиль формата : Layer 2
Идентификатор кодека : A_MPEG/L2
Идентификатор кодека/Подсказка : MP2
Продолжительность : 43 м. 41 с.
Вид битрейта : Постоянный
Битрейт : 192 Кбит/сек
Каналы : 2 канала
Частота : 48,0 КГц
Метод сжатия : С потерями
Задержка видео : 24 мс.
Размер потока : 60,0 Мбайт (5%)
Язык : English
Default : Да
Forced : Нет

Внимание! Раздача ведётся путём добавления новых серий:

При каждом добавлении создаётся новый торрент. Чтобы начать докачку новой серии, пользователям
необходимо сделать следующее:
- Остановить скачивание.
- Удалить старый торрент у себя из клиента (старые серии удалять не надо).
- Скачать новый торрент и запустить его у себя в клиенте вместо старого, при этом указать клиенту путь в старую папку куда и должно происходить скачивание новых серий.
Скриншоты:

Дополнительные скриншоты:

Все одноименные релизы в КлубеВремя раздачи: с 18:00 до 23:00 (до появления первых 3-5 скачавших)

If you like the topic, please click share to help develop our site.

To download the file disable ad blocking, and reload the page.

disable adblock How to disable ad blocking?

Download by magnet link 1.28 GB Download Torrent

Login using:

Similar topics



   
Current time is: 23-Apr 15:12 :: All times are UTC + 3