- The Modern Jazz Quartet - Concert In Japan, Vol.2 (1966) 2014, Warner - Жанр: Cool
Издание: Warner / Atlantic - WPCR-27455
Продолжительность: 00:39:42
Кодек: FLAC (image+.cue)
Битрейт: Lossless
Источник (релизер): Собственный рип
Страна-производитель диска: EU
Наличие сканов в содержимом раздачи: да
Треклист:
01. Ralph's New Blues [06:48]
02. I Love You Porgy [04:56]
03. Pyramid [07:20]
04. Home [04:21]
05. Winter Tale [04:59]
06. Blues Milanese [06:19]
07. Bags Groove [05:01]

Отчёт EAC:

Exact Audio Copy V1.0 beta 3 from 29. August 2011
EAC extraction logfile from 4. February 2018, 17:08
The Modern Jazz Quartet / Concert in Japan, Vol. 2
Used drive : TSSTcorpCDDVDW SH-224FB Adapter: 1 ID: 0
Read mode : Secure
Utilize accurate stream : Yes
Defeat audio cache : Yes
Make use of C2 pointers : No
Read offset correction : 6
Overread into Lead-In and Lead-Out : No
Fill up missing offset samples with silence : Yes
Delete leading and trailing silent blocks : No
Null samples used in CRC calculations : Yes
Used interface : Native Win32 interface for Win NT & 2000
Used output format : User Defined Encoder
Selected bitrate : 128 kBit/s
Quality : High
Add ID3 tag : No
Command line compressor : C:\Program Files (x86)\Exact Audio Copy\Flac\flac.exe
Additional command line options : -V -8 -T "Genre=%genre%" -T "Artist=%artist%" -T "Title=%title%" -T "Album=%albumtitle%" -T "Date=%year%" -T "Tracknumber=%tracknr%" -T "Comment=%comment%" %source%
TOC of the extracted CD
Track | Start | Length | Start sector | End sector
---------------------------------------------------------
1 | 0:00.00 | 6:47.18 | 0 | 30542
2 | 6:47.18 | 4:55.71 | 30543 | 52738
3 | 11:43.14 | 7:19.71 | 52739 | 85734
4 | 19:03.10 | 4:20.09 | 85735 | 105243
5 | 23:23.19 | 4:58.28 | 105244 | 127621
6 | 28:21.47 | 6:18.55 | 127622 | 156026
7 | 34:40.27 | 5:00.72 | 156027 | 178598
Range status and errors
Selected range
Filename D:\1\Modern Jazz Quartet - Concert In Japan, Vol.2 (2014)\The Modern Jazz Quartet - Concert in Japan, Vol. 2.wav
Peak level 100.0 %
Extraction speed 2.6 X
Range quality 100.0 %
Test CRC 5CF01017
Copy CRC 5CF01017
Copy OK
No errors occurred
AccurateRip summary
Track 1 accurately ripped (confidence 8) [6BC728A9] (AR v2)
Track 2 accurately ripped (confidence 9) [FEBD4234] (AR v2)
Track 3 accurately ripped (confidence 9) [631CB2FB] (AR v2)
Track 4 accurately ripped (confidence 9) [6D2D8789] (AR v2)
Track 5 accurately ripped (confidence 9) [3209F5D4] (AR v2)
Track 6 accurately ripped (confidence 9) [209A6B03] (AR v2)
Track 7 accurately ripped (confidence 9) [C70A9F9D] (AR v2)
All tracks accurately ripped
End of status report
==== Log checksum 889127F6D4BB39331FE2A04148C511F737B3AE2C153F11E60B3CC99A2F01500C ====

Cue Sheet (.cue):

REM GENRE Jazz
REM DATE 2014
REM DISCID 47094D07
REM COMMENT "ExactAudioCopy v1.0b3"
CATALOG 4943674153732
PERFORMER "The Modern Jazz Quartet"
TITLE "Concert in Japan, Vol. 2"
FILE "The Modern Jazz Quartet - Concert in Japan, Vol. 2.flac" WAVE
TRACK 01 AUDIO
TITLE "Ralph's New Blues"
PERFORMER "The Modern Jazz Quartet"
ISRC USAT20703002
INDEX 01 00:00:00
TRACK 02 AUDIO
TITLE "I Love You Porgy"
PERFORMER "The Modern Jazz Quartet"
ISRC USAT20703005
INDEX 01 06:47:18
TRACK 03 AUDIO
TITLE "Pyramid"
PERFORMER "The Modern Jazz Quartet"
ISRC USAT20703006
INDEX 01 11:43:14
TRACK 04 AUDIO
TITLE "Home"
PERFORMER "The Modern Jazz Quartet"
ISRC USAT20703007
INDEX 00 19:00:38
INDEX 01 19:03:10
TRACK 05 AUDIO
TITLE "Winter Tale"
PERFORMER "The Modern Jazz Quartet"
ISRC USAT20703004
INDEX 01 23:23:19
TRACK 06 AUDIO
TITLE "Blues Milanese"
PERFORMER "The Modern Jazz Quartet"
ISRC USAT20703004
INDEX 01 28:21:47
TRACK 07 AUDIO
TITLE "Bags Groove"
PERFORMER "The Modern Jazz Quartet"
ISRC USAT20703008
INDEX 01 34:40:27

Отчёт auCDtect Task manager:

-----------------------
DON'T MODIFY THIS FILE
-----------------------
PERFORMER: auCDtect Task Manager, ver. 1.6.0 RC1 build 1.6.0.1
Copyright (c) 2008-2010 y-soft. All rights reserved
http://y-soft.org
ANALYZER: auCDtect: CD records authenticity detector, version 0.8.2
Copyright (c) 2004 Oleg Berngardt. All rights reserved.
Copyright (c) 2004 Alexander Djourik. All rights reserved.
FILE: The Modern Jazz Quartet - Concert in Japan, Vol. 2.flac
Size: 259716360 Hash: 485F52BB96E0F7EA8C25E0236D93CBC6 Accuracy: -m0
Conclusion: CDDA 100%
Signature: B8C5AB25A964468387E2FA7C8B73BFB052FF9CA0

Состав

John Lewis - piano
Milt Jackson - vibes
Percy Heath - bass
Connie Kay - drums
Время раздачи: c 15:00 до 22:00 (до появления первых 3-5 скачавших)-

Поглощение/вытеснение
Только с согласия релизера

SoulEater

If you like the topic, please click share to help develop our site.

To download the file disable ad blocking, and reload the page.

disable adblock How to disable ad blocking?

Download by magnet link 250 MB Download Torrent

Login using:

Similar topics



   
Current time is: 17-Jun 02:33 :: All times are UTC + 3