- Gene Krupa And His Orchestra - 1939 - 1940 (1995) Classics - Жанр: Swing, Big Band
Издание: Classics - 834
Продолжительность: 01:05:55
Кодек: FLAC (tracks+.cue)
Битрейт: Lossless
Источник (релизер): papa1954
Страна-производитель диска: France
Наличие сканов в содержимом раздачи: нет
Треклист:
01. My Old Kentucky Home [02:41]
02. Take Your Love [02:43]
03. I Like To Recognize The Tune [02:57]
04. All Dressed Up (Spic And Spanish) [02:28]
05. On The Beam [02:44]
06. Symphony In Riffs [02:58]
07. After All [02:52]
08. You're A Lucky Guy [02:45]
09. Vagabond Dreams [02:37]
10. Drummin' Man [03:05]

Продолжение треклиста

11. I'd Love To Call You My Sweetheart [02:50]
12. Three Little Words [02:34]
13. Marcheta [02:52]
14. Blue Rhythm Fantasy - Part 1 [03:02]
15. Blue Rhythm Fantasy - Part 2 [02:53]
16. A Lover Is Blue [02:56]
17. I've Go No Strings [02:41]
18. The Rumba Jumps [03:00]
19. I've Got My Eyes On You [02:55]
20. The Woodpecker Song [03:00]
21. A Lover's Lullaby [03:05]
22. It Happened In Kloha [03:00]
23. Boog It [03:27]

Отчёт EAC:

Exact Audio Copy V0.99 prebeta 4 from 23. January 2008
EAC extraction logfile from 30. July 2011, 20:25
Gene Krupa & His Orchestra / 1939-1940
Used drive : TSSTcorpDVD+-RW TS-H653B Adapter: 1 ID: 0
Read mode : Secure
Utilize accurate stream : Yes
Defeat audio cache : Yes
Make use of C2 pointers : No
Read offset correction : 6
Overread into Lead-In and Lead-Out : No
Fill up missing offset samples with silence : Yes
Delete leading and trailing silent blocks : No
Null samples used in CRC calculations : Yes
Used interface : Native Win32 interface for Win NT & 2000
Gap handling : Appended to previous track
Used output format : User Defined Encoder
Selected bitrate : 192 kBit/s
Quality : High
Add ID3 tag : No
Command line compressor : C:\Program Files\Exact Audio Copy\Flac\flac.exe
Additional command line options : -8 -A tukey(0.25) -A gauss(0.1875) -b 4096 -V -T "artist=%a" -T "title=%t" -T "album=%g" -T "date=%y" -T "tracknumber=%n" -T "genre=%m" %s
TOC of the extracted CD
Track | Start | Length | Start sector | End sector
---------------------------------------------------------
1 | 0:00.32 | 2:40.10 | 32 | 12041
2 | 2:40.42 | 2:42.03 | 12042 | 24194
3 | 5:22.45 | 2:56.52 | 24195 | 37446
4 | 8:19.22 | 2:27.18 | 37447 | 48489
5 | 10:46.40 | 2:43.17 | 48490 | 60731
6 | 13:29.57 | 2:57.23 | 60732 | 74029
7 | 16:27.05 | 2:51.55 | 74030 | 86909
8 | 19:18.60 | 2:44.57 | 86910 | 99266
9 | 22:03.42 | 2:36.45 | 99267 | 111011
10 | 24:40.12 | 3:04.40 | 111012 | 124851
11 | 27:44.52 | 2:49.70 | 124852 | 137596
12 | 30:34.47 | 2:33.65 | 137597 | 149136
13 | 33:08.37 | 2:51.10 | 149137 | 161971
14 | 35:59.47 | 3:01.70 | 161972 | 175616
15 | 39:01.42 | 2:52.58 | 175617 | 188574
16 | 41:54.25 | 2:55.10 | 188575 | 201709
17 | 44:49.35 | 2:40.57 | 201710 | 213766
18 | 47:30.17 | 2:59.25 | 213767 | 227216
19 | 50:29.42 | 2:54.50 | 227217 | 240316
20 | 53:24.17 | 2:59.58 | 240317 | 253799
21 | 56:24.00 | 3:04.47 | 253800 | 267646
22 | 59:28.47 | 2:59.73 | 267647 | 281144
23 | 62:28.45 | 3:26.62 | 281145 | 296656
Track 1
Filename C:\Gene Krupa & His Orchestra - 1939-1940 FLAC\01 - My Old Kentucky Home.wav
Pre-gap length 0:00:02.42
Peak level 78.2 %
Track quality 99.9 %
Test CRC F76F22DF
Copy CRC F76F22DF
Accurately ripped (confidence 1) [EE129395]
Copy OK
Track 2
Filename C:\Gene Krupa & His Orchestra - 1939-1940 FLAC\02 - Take Your Love.wav
Pre-gap length 0:00:01.00
Peak level 70.3 %
Track quality 99.9 %
Test CRC A98252C6
Copy CRC A98252C6
Accurately ripped (confidence 1) [64B7E2FD]
Copy OK
Track 3
Filename C:\Gene Krupa & His Orchestra - 1939-1940 FLAC\03 - I Like to Recognize the Tune.wav
Pre-gap length 0:00:01.00
Peak level 63.9 %
Track quality 100.0 %
Test CRC 791B9276
Copy CRC 791B9276
Accurately ripped (confidence 1) [C69125D6]
Copy OK
Track 4
Filename C:\Gene Krupa & His Orchestra - 1939-1940 FLAC\04 - All Dressed Up Spic and Spanish.wav
Pre-gap length 0:00:01.00
Peak level 78.4 %
Track quality 100.0 %
Test CRC 51611CAC
Copy CRC 51611CAC
Accurately ripped (confidence 1) [DCAD74AE]
Copy OK
Track 5
Filename C:\Gene Krupa & His Orchestra - 1939-1940 FLAC\05 - On the Beam.wav
Pre-gap length 0:00:01.00
Peak level 91.7 %
Track quality 100.0 %
Test CRC AC5ED2F4
Copy CRC AC5ED2F4
Accurately ripped (confidence 1) [CB089D1B]
Copy OK
Track 6
Filename C:\Gene Krupa & His Orchestra - 1939-1940 FLAC\06 - Symphony in Riffs.wav
Pre-gap length 0:00:01.00
Peak level 74.7 %
Track quality 99.9 %
Test CRC BACEB3CB
Copy CRC BACEB3CB
Accurately ripped (confidence 1) [8D347BE4]
Copy OK
Track 7
Filename C:\Gene Krupa & His Orchestra - 1939-1940 FLAC\07 - After All.wav
Pre-gap length 0:00:01.00
Peak level 69.3 %
Track quality 100.0 %
Test CRC C1296AD9
Copy CRC C1296AD9
Accurately ripped (confidence 1) [5C5EE028]
Copy OK
Track 8
Filename C:\Gene Krupa & His Orchestra - 1939-1940 FLAC\08 - You're a Lucky Guy.wav
Pre-gap length 0:00:01.00
Peak level 73.2 %
Track quality 100.0 %
Test CRC 82E3B752
Copy CRC 82E3B752
Accurately ripped (confidence 1) [2D1D2A1A]
Copy OK
Track 9
Filename C:\Gene Krupa & His Orchestra - 1939-1940 FLAC\09 - Vagabond Dreams.wav
Pre-gap length 0:00:01.00
Peak level 82.3 %
Track quality 100.0 %
Test CRC 7C190829
Copy CRC 7C190829
Accurately ripped (confidence 1) [1FB90A7B]
Copy OK
Track 10
Filename C:\Gene Krupa & His Orchestra - 1939-1940 FLAC\10 - Drummin' Man.wav
Pre-gap length 0:00:01.00
Peak level 85.2 %
Track quality 100.0 %
Test CRC AF3B86C2
Copy CRC AF3B86C2
Accurately ripped (confidence 1) [F86F51A9]
Copy OK
Track 11
Filename C:\Gene Krupa & His Orchestra - 1939-1940 FLAC\11 - I'd Love to Call You My Sweetheart.wav
Pre-gap length 0:00:01.00
Peak level 85.7 %
Track quality 100.0 %
Test CRC 90C34BF1
Copy CRC 90C34BF1
Accurately ripped (confidence 1) [4E284CDB]
Copy OK
Track 12
Filename C:\Gene Krupa & His Orchestra - 1939-1940 FLAC\12 - Three Little Words.wav
Peak level 74.9 %
Track quality 100.0 %
Test CRC B7EFD906
Copy CRC B7EFD906
Accurately ripped (confidence 1) [FC897728]
Copy OK
Track 13
Filename C:\Gene Krupa & His Orchestra - 1939-1940 FLAC\13 - Marcheta.wav
Pre-gap length 0:00:01.00
Peak level 85.9 %
Track quality 100.0 %
Test CRC 5E0A3FF6
Copy CRC 5E0A3FF6
Accurately ripped (confidence 1) [AB8A85F4]
Copy OK
Track 14
Filename C:\Gene Krupa & His Orchestra - 1939-1940 FLAC\14 - Blue Rhythm Fantasy - Part 1.wav
Pre-gap length 0:00:01.00
Peak level 73.4 %
Track quality 99.9 %
Test CRC 167739AC
Copy CRC 167739AC
Accurately ripped (confidence 1) [2C4C7E15]
Copy OK
Track 15
Filename C:\Gene Krupa & His Orchestra - 1939-1940 FLAC\15 - Blue Rhythm Fantasy - Part 2.wav
Pre-gap length 0:00:01.00
Peak level 99.9 %
Track quality 100.0 %
Test CRC 2C3745E6
Copy CRC 2C3745E6
Accurately ripped (confidence 1) [A8B609C9]
Copy OK
Track 16
Filename C:\Gene Krupa & His Orchestra - 1939-1940 FLAC\16 - A Lover Is Blue.wav
Pre-gap length 0:00:01.00
Peak level 62.8 %
Track quality 100.0 %
Test CRC D070AAB1
Copy CRC D070AAB1
Accurately ripped (confidence 1) [4F05C9C5]
Copy OK
Track 17
Filename C:\Gene Krupa & His Orchestra - 1939-1940 FLAC\17 - I've Go No Strings.wav
Pre-gap length 0:00:01.00
Peak level 74.3 %
Track quality 100.0 %
Test CRC E7D99465
Copy CRC E7D99465
Accurately ripped (confidence 1) [B76549A9]
Copy OK
Track 18
Filename C:\Gene Krupa & His Orchestra - 1939-1940 FLAC\18 - The Rumba Jumps.wav
Pre-gap length 0:00:01.00
Peak level 85.2 %
Track quality 99.9 %
Test CRC 7A4E4B12
Copy CRC 7A4E4B12
Accurately ripped (confidence 1) [32603574]
Copy OK
Track 19
Filename C:\Gene Krupa & His Orchestra - 1939-1940 FLAC\19 - I've Got My Eyes on You.wav
Pre-gap length 0:00:01.00
Peak level 63.4 %
Track quality 99.9 %
Test CRC 7F48F8AF
Copy CRC 7F48F8AF
Accurately ripped (confidence 1) [5E12C8B0]
Copy OK
Track 20
Filename C:\Gene Krupa & His Orchestra - 1939-1940 FLAC\20 - The Woodpecker Song.wav
Pre-gap length 0:00:01.00
Peak level 69.3 %
Track quality 100.0 %
Test CRC AAE5E153
Copy CRC AAE5E153
Accurately ripped (confidence 1) [02C97234]
Copy OK
Track 21
Filename C:\Gene Krupa & His Orchestra - 1939-1940 FLAC\21 - A Lover's Lullaby.wav
Pre-gap length 0:00:01.00
Peak level 71.7 %
Track quality 99.9 %
Test CRC A7E681F7
Copy CRC A7E681F7
Accurately ripped (confidence 1) [57F3BBF9]
Copy OK
Track 22
Filename C:\Gene Krupa & His Orchestra - 1939-1940 FLAC\22 - It Happened in Kloha.wav
Pre-gap length 0:00:01.00
Peak level 60.6 %
Track quality 99.9 %
Test CRC 9E43973F
Copy CRC 9E43973F
Accurately ripped (confidence 1) [4DF0DFCB]
Copy OK
Track 23
Filename C:\Gene Krupa & His Orchestra - 1939-1940 FLAC\23 - Boog It.wav
Pre-gap length 0:00:01.00
Peak level 61.0 %
Track quality 100.0 %
Test CRC 16169D77
Copy CRC 16169D77
Accurately ripped (confidence 1) [D05395A9]
Copy OK
All tracks accurately ripped
No errors occurred
End of status report

Cue Sheet (.cue):

REM GENRE Jazz
REM DATE 1995
REM DISCID 360F7317
REM COMMENT "ExactAudioCopy v0.99pb4"
PERFORMER "Gene Krupa And His Orchestra"
TITLE "1939-1940 {Chronological Classics, 834}"
FILE "01. My Old Kentucky Home.flac" WAVE
TRACK 01 AUDIO
TITLE "My Old Kentucky Home"
PERFORMER "Gene Krupa And His Orchestra"
PREGAP 00:00:32
INDEX 01 00:00:00
TRACK 02 AUDIO
TITLE "Take Your Love"
PERFORMER "Gene Krupa And His Orchestra"
INDEX 00 02:39:10
FILE "02. Take Your Love.flac" WAVE
INDEX 01 00:00:00
TRACK 03 AUDIO
TITLE "I Like To Recognize The Tune"
PERFORMER "Gene Krupa And His Orchestra"
INDEX 00 02:41:03
FILE "03. I Like To Recognize The Tune.flac" WAVE
INDEX 01 00:00:00
TRACK 04 AUDIO
TITLE "All Dressed (Up Spic And Spanish)"
PERFORMER "Gene Krupa And His Orchestra"
INDEX 00 02:55:52
FILE "04. All Dressed Up (Spic And Spanish).flac" WAVE
INDEX 01 00:00:00
TRACK 05 AUDIO
TITLE "On The Beam"
PERFORMER "Gene Krupa And His Orchestra"
INDEX 00 02:26:18
FILE "05. On The Beam.flac" WAVE
INDEX 01 00:00:00
TRACK 06 AUDIO
TITLE "Symphony In Riffs"
PERFORMER "Gene Krupa And His Orchestra"
INDEX 00 02:42:17
FILE "06. Symphony In Riffs.flac" WAVE
INDEX 01 00:00:00
TRACK 07 AUDIO
TITLE "After All"
PERFORMER "Gene Krupa And His Orchestra"
INDEX 00 02:56:23
FILE "07. After All.flac" WAVE
INDEX 01 00:00:00
TRACK 08 AUDIO
TITLE "You're A Lucky Guy"
PERFORMER "Gene Krupa And His Orchestra"
INDEX 00 02:50:55
FILE "08. You're A Lucky Guy.flac" WAVE
INDEX 01 00:00:00
TRACK 09 AUDIO
TITLE "Vagabond Dreams"
PERFORMER "Gene Krupa And His Orchestra"
INDEX 00 02:43:57
FILE "09. Vagabond Dreams.flac" WAVE
INDEX 01 00:00:00
TRACK 10 AUDIO
TITLE "Drummin' Man"
PERFORMER "Gene Krupa And His Orchestra"
INDEX 00 02:35:45
FILE "10. Drummin' Man.flac" WAVE
INDEX 01 00:00:00
TRACK 11 AUDIO
TITLE "I'd Love To Call You My Sweetheart"
PERFORMER "Gene Krupa And His Orchestra"
INDEX 00 03:03:40
FILE "11. I'd Love To Call You My Sweetheart.flac" WAVE
INDEX 01 00:00:00
FILE "12. Three Little Words.flac" WAVE
TRACK 12 AUDIO
TITLE "Three Little Words"
PERFORMER "Gene Krupa And His Orchestra"
INDEX 01 00:00:00
TRACK 13 AUDIO
TITLE "Marcheta"
PERFORMER "Gene Krupa And His Orchestra"
INDEX 00 02:32:65
FILE "13. Marcheta.flac" WAVE
INDEX 01 00:00:00
TRACK 14 AUDIO
TITLE "Blue Rhythm Fantasy - Part 1"
PERFORMER "Gene Krupa And His Orchestra"
INDEX 00 02:50:10
FILE "14. Blue Rhythm Fantasy - Part 1.flac" WAVE
INDEX 01 00:00:00
TRACK 15 AUDIO
TITLE "Blue Rhythm Fantasy - Part 2"
PERFORMER "Gene Krupa And His Orchestra"
INDEX 00 03:00:70
FILE "15. Blue Rhythm Fantasy - Part 2.flac" WAVE
INDEX 01 00:00:00
TRACK 16 AUDIO
TITLE "A Lover Is Blue"
PERFORMER "Gene Krupa And His Orchestra"
INDEX 00 02:51:58
FILE "16. A Lover Is Blue.flac" WAVE
INDEX 01 00:00:00
TRACK 17 AUDIO
TITLE "I've Go No Strings"
PERFORMER "Gene Krupa And His Orchestra"
INDEX 00 02:54:10
FILE "17. I've Go No Strings.flac" WAVE
INDEX 01 00:00:00
TRACK 18 AUDIO
TITLE "The Rumba Jumps"
PERFORMER "Gene Krupa And His Orchestra"
INDEX 00 02:39:57
FILE "18. The Rumba Jumps.flac" WAVE
INDEX 01 00:00:00
TRACK 19 AUDIO
TITLE "I've Got My Eyes on You"
PERFORMER "Gene Krupa And His Orchestra"
INDEX 00 02:58:25
FILE "19. I've Got My Eyes on You.flac" WAVE
INDEX 01 00:00:00
TRACK 20 AUDIO
TITLE "The Woodpecker Song"
PERFORMER "Gene Krupa And His Orchestra"
INDEX 00 02:53:50
FILE "20. The Woodpecker Song.flac" WAVE
INDEX 01 00:00:00
TRACK 21 AUDIO
TITLE "A Lover's Lullaby"
PERFORMER "Gene Krupa And His Orchestra"
INDEX 00 02:58:58
FILE "21. A Lover's Lullaby.flac" WAVE
INDEX 01 00:00:00
TRACK 22 AUDIO
TITLE "It Happened In Kloha"
PERFORMER "Gene Krupa And His Orchestra"
INDEX 00 03:03:47
FILE "22. It Happened In Kloha.flac" WAVE
INDEX 01 00:00:00
TRACK 23 AUDIO
TITLE "Boog It"
PERFORMER "Gene Krupa And His Orchestra"
INDEX 00 02:58:73
FILE "23. Boog It.flac" WAVE
INDEX 01 00:00:00

Отчёт auCDtect Task manager:

-----------------------
DON'T MODIFY THIS FILE
-----------------------
PERFORMER: auCDtect Task Manager, ver. 1.6.0 RC1 build 1.6.0.1
Copyright (c) 2008-2010 y-soft. All rights reserved
http://y-soft.org
ANALYZER: auCDtect: CD records authenticity detector, version 0.8.2
Copyright (c) 2004 Oleg Berngardt. All rights reserved.
Copyright (c) 2004 Alexander Djourik. All rights reserved.
FILE: 23. Boog It.flac
Size: 12394507 Hash: 20CEE0241246D265EF3E2BA34CDFFDB6 Accuracy: -m0
Conclusion: CDDA 100%
Signature: 3B9D46B2B82A6D95A40CBB29BAB68F8520920DC2
FILE: 22. It Happened In Kloha.flac
Size: 9298951 Hash: 4F823729092FEDA775F338D9F50B6CDD Accuracy: -m0
Conclusion: CDDA 100%
Signature: 8804668CE23399375465479F3DA527E089070F13
FILE: 21. A Lover's Lullaby.flac
Size: 11177100 Hash: 1029DCDCA3F4E41BD88F8E53CBCF0DA5 Accuracy: -m0
Conclusion: CDDA 100%
Signature: 45111D76C534D62990F552F142B0BBC16F404698
FILE: 20. The Woodpecker Song.flac
Size: 9800903 Hash: 6F0691795B4D1692CEABFD026D99E72D Accuracy: -m0
Conclusion: CDDA 100%
Signature: F924C1D95B080195D490503DC338E83DCEEB1F75
FILE: 19. I've Got My Eyes On You.flac
Size: 9127013 Hash: CD25293726CBC018672332DD108FC3C3 Accuracy: -m0
Conclusion: CDDA 100%
Signature: 8044206DF0B6BAA47037214EB89B40B5D11815F4
FILE: 18. The Rumba Jumps.flac
Size: 9471855 Hash: BCAC1D0AB845CCE1C84E576CA57E268C Accuracy: -m0
Conclusion: CDDA 100%
Signature: 40F9105D4EDA8DF58CC34BA81ECDB8F4188A0143
FILE: 17. I've Go No Strings.flac
Size: 8607582 Hash: 57379C1D9FFADA45722B82F109ECA269 Accuracy: -m0
Conclusion: CDDA 100%
Signature: F1A46134BDC6CAB3ECD4B8F6EAEBD753D87442C2
FILE: 16. A Lover Is Blue.flac
Size: 9302083 Hash: 754F96C3941A7388300B76164B106D7F Accuracy: -m0
Conclusion: CDDA 99%
Signature: 51ACD8275C55AF9DAB53CDCCDAA015AC66C0CEA6
FILE: 15. Blue Rhythm Fantasy - Part 2.flac
Size: 9410963 Hash: 0355D36308220F66D629149744407A96 Accuracy: -m0
Conclusion: CDDA 100%
Signature: DCEC217CFA00D4E7E9957318825E745529A8840F
FILE: 14. Blue Rhythm Fantasy - Part 1.flac
Size: 10028626 Hash: A313BBE2FF8742B0E09C1EF35792351E Accuracy: -m0
Conclusion: CDDA 100%
Signature: A14173C07170170B3940D25A55CADF579832F49C
FILE: 13. Marcheta.flac
Size: 9846606 Hash: F20EBF0AB9580A7BF374D5B04F429352 Accuracy: -m0
Conclusion: CDDA 100%
Signature: 65E2CB3B8730BEE10F731A76CF84EF847E9D68C9
FILE: 12. Three Little Words.flac
Size: 9090035 Hash: FC48AA8075CFF3AC8D658CB1BB391905 Accuracy: -m0
Conclusion: CDDA 100%
Signature: D40C9361B2184CD3CBA38D28E9541E186D5FDAB6
FILE: 11. I'd Love To Call You My Sweetheart.flac
Size: 9861765 Hash: 67B5D9C1F4D2051EAA93B346134545CE Accuracy: -m0
Conclusion: CDDA 100%
Signature: 9916EA9840457DCAB8E7E5A3AAD80FF1888D375E
FILE: 10. Drummin' Man.flac
Size: 10405366 Hash: BCB40A985DEDB233DEFA8F6C19A7D353 Accuracy: -m0
Conclusion: CDDA 100%
Signature: A3D8FBD5EC2E8F7FC58144F0C941E8BA035E2B5E
FILE: 09. Vagabond Dreams.flac
Size: 9189838 Hash: FE1F8844445936FBB8F3243E5583274A Accuracy: -m0
Conclusion: CDDA 100%
Signature: 8570FD5FAF9CCBCA9C1152C438C726F9283E4FA1
FILE: 08. You're A Lucky Guy.flac
Size: 9637440 Hash: 2FD675B18D9D33DC03B6DB94C68B0F49 Accuracy: -m0
Conclusion: CDDA 100%
Signature: A4D995E5091334C7BE343AE29B66A82E880E65B9
FILE: 07. After All.flac
Size: 9992074 Hash: 2D5DE61DDBE5B0624A3E1ACEB9CFB6E0 Accuracy: -m0
Conclusion: CDDA 100%
Signature: 861B642ED5B3CFDDA51A6B55F043E9B6C5BCAD1D
FILE: 06. Symphony In Riffs.flac
Size: 10324170 Hash: 1095EBFB2974C2EF24FFAC4236CC88B0 Accuracy: -m0
Conclusion: CDDA 100%
Signature: CB04A38D79FE0A41113AA1620A43327A406B281A
FILE: 05. On The Beam.flac
Size: 9712659 Hash: 5D3D8CC1C302BAE49AD7CA49F589D7CD Accuracy: -m0
Conclusion: CDDA 100%
Signature: 592976852C8A6827C6C48291D6506C0BA8FA2702
FILE: 04. All Dressed Up (Spic And Spanish).flac
Size: 9059993 Hash: 6A8B5C4A4F4D1A79B631F5D56A3DD755 Accuracy: -m0
Conclusion: CDDA 100%
Signature: D3FC411463A0978E907EE37505B6A87AB2A792A5
FILE: 03. I Like To Recognize The Tune.flac
Size: 10548673 Hash: C9FCC6778166ECAFA6F79A2260D1A845 Accuracy: -m0
Conclusion: CDDA 100%
Signature: 57B949E2D61A8A39BF2CD0E317F36799B3DEB224
FILE: 02. Take Your Love.flac
Size: 10092060 Hash: 4E3D81AC169FBF5D167673EBDB8A7A79 Accuracy: -m0
Conclusion: CDDA 100%
Signature: 857F5776E9924323DB171A64C8356D8963336FAC
FILE: 01. My Old Kentucky Home.flac
Size: 9952708 Hash: 835F5C0D48B99808ABECEE3984E42EA4 Accuracy: -m0
Conclusion: CDDA 100%
Signature: 748747DD8BB54E66799E4F3E3429D91BC560DFD7
Время раздачи: c 15:00 до 22:00 (до появления первых 3-5 скачавших)-

Поглощение/вытеснение
Только с согласия релизера

Beijing65

If you like the topic, please click share to help develop our site.

To download the file disable ad blocking, and reload the page.

disable adblock How to disable ad blocking?

Download by magnet link 216 MB Download Torrent

Login using:

Similar topics

(Nu Jazz, Chanson, Soul) ZAZ - Effet Miroir - 2018, MP3, 320 kbps
 122 MB   21 | 2   21-Nov-18 05:50   146
Kamasi Washington - Heaven And Earth (2018) FLAC
 1.11 GB   3 | 0   21-Aug-18 19:00   115


   
Current time is: 27-Jun 10:12 :: All times are UTC + 3