«Что случилось с Понедельник?»
Информация о фильме
Название: Тайна 7 сестер
Оригинальное название: Seven Sisters
Год выхода: 2017
Жанр: Фантастика, боевик, триллер, драма, криминал, детектив, приключения
Режиссер: Томми Виркола
В ролях: Нуми Рапас, Марван Кензари, Уиллем Дефо, Роберт Вагнер, Гленн Клоуз, Лара Дэкаро, Пол Сверре Валхейм Хаген, Адетомива Едун, Кристиан Рубек
О фильме:
В мире, где семейным парам разрешено иметь только одного ребенка, рождается семь сестер-близняшек. Родители решают сохранить всех и дают малышкам имена в честь дней недели. Так девочки и появляются на людях — каждая в свой день. Но однажды Понедельник пропадает…

Страна: Великобритания, Франция, Бельгия
Студия: Nexus Factory, Raffaella Productions, SND, Title Media, uMedia Family, VendГґme Pictures
Продолжительность: 02:03:31
Перевод:
Дублированный | Blu-ray RUS
Авторский (одноголосый, закадровый) | Живов
Файл
Качество: BDRip 720p
Формат: MKV
Кодек: MPEG-4 AVC
Видео: 1280x536 (2,40:1), 24 fps, MPEG-4 AVC ~ 6632 Kbps avg, 0.403 bit/pixel
Аудио: DTS, 48 kHz, 6 ch, ~1510.00 kbps avg | русский | Blu-ray RUS
Аудио: АС3, 48 kHz, 6 ch, ~640.00 kbps avg | русский | Blu-ray RUS
Аудио: DTS, 48 kHz, 6 ch, ~1510.00 kbps avg | русский | Живов
Аудио: DTS, 48 kHz, 6 ch, ~1509.00 kbps avg | английский | Оригинал
Субтитры: Русские (Форсированные), Русские (Полные), Английские (Full), Английские (SDH)

Инфо-файл

Общее
Уникальный идентификатор : 186019686840894730674761979815623390756 (0x8BF216A8CDC5AF51BE42EE9D73C7F624)
Полное имя : What.Happened.to.Monday.2017.720p.Blu.Ray.x264.2хRus.Eng.DTS.5.1.mkv
Формат : Matroska
Версия формата : Version 4 / Version 2
Размер файла : 10,2 Гбайт
Продолжительность : 2 ч. 3 м.
Общий поток : 11,8 Мбит/сек
Название фильма : Тайна 7 сестер (2017)
Дата кодирования : UTC 2018-02-06 20:38:08
Программа кодирования : mkvmerge v9.7.1 ('Pandemonium') 64bit
Библиотека кодирования : libebml v1.3.4 + libmatroska v1.4.5
Видео
Идентификатор : 1
Формат : AVC
Формат/Информация : Advanced Video Codec
Профиль формата : [email protected]
Настройки формата : CABAC / 12 Ref Frames
Параметр CABAC формата : Да
Параметр ReFrames формата : 12 кадров
Идентификатор кодека : V_MPEG4/ISO/AVC
Продолжительность : 2 ч. 3 м.
Битрейт : 6632 Кбит/сек
Ширина : 1280 пикселей
Высота : 536 пикселей
Соотношение сторон : 2,40:1
Режим частоты кадров : Постоянный
Частота кадров : 24,000 кадра/сек
Цветовое пространство : YUV
Субдискретизация насыщенности : 4:2:0
Битовая глубина : 8 бит
Тип развёртки : Прогрессивная
Бит/(Пиксели*Кадры) : 0.403
Размер потока : 5,72 Гбайт (56%)
Заголовок : What.Happened.to.Monday.2017.720p.Blu.Ray.x264.2хRus.Eng.DTS.5.1
Библиотека кодирования : x264 core 152 r2851 ba24899
Настройки программы : cabac=1 / ref=12 / deblock=1:-3:-3 / analyse=0x3:0x113 / me=umh / subme=10 / psy=1 / psy_rd=1.02:0.00 / mixed_ref=1 / me_range=32 / chroma_me=1 / trellis=2 / 8x8dct=1 / cqm=1 / deadzone=21,11 / fast_pskip=0 / chroma_qp_offset=-1 / threads=12 / lookahead_threads=2 / sliced_threads=0 / nr=0 / decimate=1 / interlaced=0 / bluray_compat=0 / constrained_intra=0 / bframes=8 / b_pyramid=2 / b_adapt=2 / b_bias=0 / direct=3 / weightb=1 / open_gop=0 / weightp=2 / keyint=230 / keyint_min=24 / scenecut=40 / intra_refresh=0 / rc_lookahead=40 / rc=crf / mbtree=0 / crf=13.5 / qcomp=0.62 / qpmin=5 / qpmax=69 / qpstep=4 / vbv_maxrate=62500 / vbv_bufsize=78125 / crf_max=0.0 / nal_hrd=none / filler=0 / ip_ratio=1.30 / pb_ratio=1.20 / aq=1:0.75
Язык : English
Default : Да
Forced : Нет
Аудио #1
Идентификатор : 2
Формат : DTS
Формат/Информация : Digital Theater Systems
Идентификатор кодека : A_DTS
Продолжительность : 2 ч. 3 м.
Вид битрейта : Постоянный
Битрейт : 1510 Кбит/сек
Каналы : 6 каналов
Расположение каналов : Front: L C R, Side: L R, LFE
Частота : 48,0 КГц
Частота кадров : 93,750 кадра/сек (512 SPF)
Битовая глубина : 24 бит
Метод сжатия : С потерями
Размер потока : 1,30 Гбайт (13%)
Заголовок : DUB | Blu-ray RUS
Язык : Russian
Default : Да
Forced : Нет
Аудио #2
Идентификатор : 3
Формат : AC-3
Формат/Информация : Audio Coding 3
Идентификатор кодека : A_AC3
Продолжительность : 2 ч. 3 м.
Вид битрейта : Постоянный
Битрейт : 640 Кбит/сек
Каналы : 6 каналов
Расположение каналов : Front: L C R, Side: L R, LFE
Частота : 48,0 КГц
Частота кадров : 31,250 кадров/сек (1536 SPF)
Битовая глубина : 16 бит
Метод сжатия : С потерями
Размер потока : 564 Мбайт (5%)
Заголовок : DUB | Blu-ray RUS
Язык : Russian
Default : Нет
Forced : Нет
Аудио #3
Идентификатор : 4
Формат : DTS
Формат/Информация : Digital Theater Systems
Идентификатор кодека : A_DTS
Продолжительность : 2 ч. 3 м.
Вид битрейта : Постоянный
Битрейт : 1510 Кбит/сек
Каналы : 6 каналов
Расположение каналов : Front: L C R, Side: L R, LFE
Частота : 48,0 КГц
Частота кадров : 93,750 кадра/сек (512 SPF)
Битовая глубина : 24 бит
Метод сжатия : С потерями
Размер потока : 1,30 Гбайт (13%)
Заголовок : AVO | Живов
Язык : Russian
Default : Нет
Forced : Нет
Аудио #4
Идентификатор : 5
Формат : DTS
Формат/Информация : Digital Theater Systems
Идентификатор кодека : A_DTS
Продолжительность : 2 ч. 3 м.
Вид битрейта : Постоянный
Битрейт : 1509 Кбит/сек
Каналы : 6 каналов
Расположение каналов : Front: L C R, Side: L R, LFE
Частота : 48,0 КГц
Частота кадров : 93,750 кадра/сек (512 SPF)
Битовая глубина : 24 бит
Метод сжатия : С потерями
Размер потока : 1,30 Гбайт (13%)
Заголовок : Original
Язык : English
Default : Нет
Forced : Нет
Текст #1
Идентификатор : 6
Формат : UTF-8
Идентификатор кодека : S_TEXT/UTF8
Идентификатор кодека/Информация : UTF-8 Plain Text
Продолжительность : 1 ч. 13 м.
Битрейт : 0 бит/сек
ElementCount : 5
Размер потока : 217 байт (0%)
Заголовок : Форсированные
Язык : Russian
Default : Да
Forced : Нет
Текст #2
Идентификатор : 7
Формат : UTF-8
Идентификатор кодека : S_TEXT/UTF8
Идентификатор кодека/Информация : UTF-8 Plain Text
Продолжительность : 1 ч. 56 м.
Битрейт : 47 бит/сек
ElementCount : 960
Размер потока : 40,8 Кбайт (0%)
Заголовок : Полные
Язык : Russian
Default : Нет
Forced : Нет
Текст #3
Идентификатор : 8
Формат : UTF-8
Идентификатор кодека : S_TEXT/UTF8
Идентификатор кодека/Информация : UTF-8 Plain Text
Продолжительность : 1 ч. 56 м.
Битрейт : 34 бит/сек
ElementCount : 896
Размер потока : 29,1 Кбайт (0%)
Заголовок : Full
Язык : English
Default : Нет
Forced : Нет
Текст #4
Идентификатор : 9
Формат : UTF-8
Идентификатор кодека : S_TEXT/UTF8
Идентификатор кодека/Информация : UTF-8 Plain Text
Продолжительность : 1 ч. 57 м.
Битрейт : 41 бит/сек
ElementCount : 1233
Размер потока : 35,5 Кбайт (0%)
Заголовок : SDH
Язык : English
Default : Нет
Forced : Нет
Меню
00:00:00.000 : en:Chapter 1
00:09:13.667 : en:Chapter 2
00:20:16.792 : en:Chapter 3
00:29:12.333 : en:Chapter 4
00:40:32.000 : en:Chapter 5
00:51:51.750 : en:Chapter 6
00:58:04.792 : en:Chapter 7
01:14:19.833 : en:Chapter 8
01:22:25.000 : en:Chapter 9
01:32:37.958 : en:Chapter 10
01:42:29.792 : en:Chapter 11
01:49:55.875 : en:Chapter 12

Скриншоты




If you like the topic, please click share to help develop our site.

To download the file disable ad blocking, and reload the page.

disable adblock How to disable ad blocking?

Download by magnet link 10.18 GB Download Torrent

Login using:

Similar topics



   
Current time is: 27-Jun 09:37 :: All times are UTC + 3