Люблю тебя до неба / Miluji te modre
Страна: Чехия
Жанр: Романтическая комедия
Год выпуска: 2017
Продолжительность: 01:26:29
Перевод: Одноголосый закадровый (женский) Kass
Субтитры: нет
Оригинальная аудиодорожка: нет
Режиссер: Милослав Шмидмайер / Miloslav Smidmajer
В ролях: Вацлав Йилек / Vaclav Jilek, Дениза Несвачилова / Denisa Nesvacilova, Татьяна Медвецка / Tatjana Medvecka, Владимир Кратина / Vladimir Kratina, Ростислав Новак мл. / Rostislav Novak ml., Марек Вашут / Marek Vasut, Гана Вагнерова / Hana Vagnerova, Олдрих Влах / Oldrich Vlach, Тереза Бебарова / Tereza Bebarova, Мирослав Таборски / Miroslav Taborsky, Филип Каньковски / Filip Kankovsky, Зденек Жак / Zdenek Zak, Марие Малкова / Marie Malkova и др.
Описание: Родители Давида живут врозь. Отец, ценитель женской красоты, ищет себя в аранжировках мировых шедевров. Стареющая мать ударилась в буддизм. Сам Давид, куратор Народной галереи, дружит с отцом, препирается с матерью, ведет обыденную жизнь и погружен в искусство. Пока не встречает Терезу. С ней в его жизнь приходят яркие краски, необычные идеи, невероятные происшествия и даже экстравагантный соперник. В фильме много красивого обнаженного тела.
Сэмпл: https://yadi.sk/i/9ANZdzC13Sjh69
Качество видео: DVDRip
Формат видео: AVI
Видео: 720x288 (2.50:1), 25 fps, XviD build 64 ~2194 kbps avg, 0.42 bit/pixel
Аудио: Русский (Dolby AC3, 2 ch) 192 Кбит/сек, 48,0 КГц

MediaInfo

Complete name                            : C:\Downloads\Miluji.te.modre.2017.DVDrip.RusVO.aviFormat                                   : AVIFormat/Info                              : Audio Video InterleaveFile size                                : 1.45 GiBDuration                                 : 1h 26mnOverall bit rate                         : 2 397 KbpsWriting library                          : VirtualDub build 32842/release
VideoID : 0Format : MPEG-4 VisualFormat profile : Advanced [email protected] settings, BVOP : 2Format settings, QPel : NoFormat settings, GMC : No warppointsFormat settings, Matrix : Default (H.263)Codec ID : XVIDCodec ID/Hint : XviDDuration : 1h 26mnBit rate : 2 195 KbpsWidth : 720 pixelsHeight : 288 pixelsDisplay aspect ratio : 2.500Frame rate : 25.000 fpsColor space : YUVChroma subsampling : 4:2:0Bit depth : 8 bitsScan type : ProgressiveCompression mode : LossyBits/(Pixel*Frame) : 0.423Stream size : 1.33 GiB (92%)Writing library : XviD 64
AudioID : 1Format : AC-3Format/Info : Audio Coding 3Mode extension : CM (complete main)Format settings, Endianness : BigCodec ID : 2000Duration : 1h 26mnBit rate mode : ConstantBit rate : 192 KbpsChannel(s) : 2 channelsChannel positions : Front: L RSampling rate : 48.0 KHzCompression mode : LossyStream size : 119 MiB (8%)Alignment : Aligned on interleavesInterleave, duration : 40 ms (1.00 video frame)Interleave, preload duration : 512 ms

Скриншот c названием фильма

Скриншоты











If you like the topic, please click share to help develop our site.

To download the file disable ad blocking, and reload the page.

disable adblock How to disable ad blocking?

Download by magnet link 1.45 GB Download Torrent

Login using:

Similar topics



   
Current time is: 25-Jun 11:30 :: All times are UTC + 3