- Пророк / The Prophet (2014) BDRip - Производство: США, Франция, Канада, Ливан, Катар
Жанр: Рисованная анимация
Режиссер: Роджер Аллерс, Гаэтан Брицци, Пол Брицци, Джоан С. Грац, Томм Мур, Нина Палей, Билл Плимптон, Жоанн Сфар, Михал Соха
Персонажи: Лиам Нисон, Сальма Хайек, Джон Красински, Фрэнк Ланджелла, Альфред Молина
Описание:
Камила, мать-одиночка, устроилась работать по дому у Мустафы — чужеземного поэта, художника и политического деятеля, который содержится под домашним арестом. Солдат Халим, приставленный сторожить Мустафу, втайне питает к Камиле нежные чувства. Дочь Камилы Альмитра после смерти отца разучилась говорить, она доставляет всем уйму неприятностей и часто крадёт товары у местных торговцев. Единственные друзья Альмитры — это чайки, она даже как-то общается с ними, издавая крики, похожие на птичьи. Когда появляется напыщенный сержант и сообщает Мустафе, что тот свободен, но должен до конца дня отплыть к себе на родину, весь город охватывает ликование. Люди, которые любят Мустафу и почитают его как своего учителя, поздравляют его со счастливым избавлением. Однако оказывается, что за великодушным предложением свободы скрывается нечто другое…

Возраст: этот продукт не был классифицирован
Рейтинг MPAA: PG (рекомендуется присутствие родителей)
Дата мировой премьеры: 17.05.2014
Продолжительность: 01:25:18
Качество видео: BDRip [H.264/1080p] [thumb]http://sendfile.su/1402643[/thumb]
Перевод: Двуголосый закадровый
Озвучка / Автор перевода: GreenРай Studio
Субтитры: Французские
Вид субтитров: Вшитые отключаемые
Реклама: БЕЗ РЕКЛАМЫ!!!
Видео: AVC/H.264, 1920х1080, ~7839 Кбит/с
Аудио #1: Русский: AC3, 6 ch, 640 Кбит/с - Двуголосый закадровый (GreenРай Studio)
Аудио #2: Английский: DTS, 6 ch, 1509 Кбит/с - Оригинал
[thumb]http://sendfile.su/1402643[/thumb]

Mediainfo:

Общее
Уникальный идентификатор : 174701477432200587764200553208742672664 (0x836E47DA16FE9F5FBAFF6C1A3CFBF918)
Полное имя : E:\Torrent\The.Prophet.2014.P.BDRip.1080p.x264.Rus.Eng.mkv
Формат : Matroska
Версия формата : Version 4 / Version 2
Размер файла : 6,07 Гбайт
Продолжительность : 1 ч. 25 м.
Общий поток : 10,2 Мбит/сек
Дата кодирования : UTC 2016-11-19 07:38:59
Программа кодирования : mkvmerge v8.3.0 ('Over the Horizon') 32bit
Библиотека кодирования : libebml v1.3.1 + libmatroska v1.4.2
Attachments : poster.jpg
Видео
Идентификатор : 1
Формат : AVC
Формат/Информация : Advanced Video Codec
Профиль формата : High@L4
Настройки формата : CABAC / 4 Ref Frames
Параметр CABAC формата : Да
Параметр RefFrames формата : 4 кадра
Идентификатор кодека : V_MPEG4/ISO/AVC
Продолжительность : 1 ч. 25 м.
Битрейт : 8030 Кбит/сек
Ширина : 1920 пикселей
Высота : 1080 пикселей
Соотношение сторон : 16:9
Режим частоты кадров : Постоянный
Частота кадров : 23,976 (24000/1001) кадра/сек
Цветовое пространство : YUV
Субдискретизация насыщенности : 4:2:0
Битовая глубина : 8 бит
Тип развёртки : Прогрессивная
Бит/(Пиксели*Кадры) : 0.162
Размер потока : 4,78 Гбайт (79%)
Библиотека кодирования : x264 core 132
Настройки программы : cabac=1 / ref=4 / deblock=1:-1:-1 / analyse=0x3:0x133 / me=umh / subme=10 / psy=1 / psy_rd=1,00:10,00 / mixed_ref=1 / me_range=24 / chroma_me=1 / trellis=2 / 8x8dct=1 / cqm=0 / deadzone=21,11 / fast_pskip=1 / chroma_qp_offset=-4 / threads=18 / lookahead_threads=2 / sliced_threads=0 / nr=0 / decimate=1 / interlaced=0 / bluray_compat=0 / constrained_intra=0 / bframes=6 / b_pyramid=2 / b_adapt=2 / b_bias=0 / direct=3 / weightb=1 / open_gop=0 / weightp=2 / keyint=240 / keyint_min=24 / scenecut=40 / intra_refresh=0 / rc_lookahead=60 / rc=crf / mbtree=1 / crf=18,0 / qcomp=0,60 / qpmin=3 / qpmax=69 / qpstep=4 / ip_ratio=1,40 / aq=1:1,00
Язык : English
Default : Да
Forced : Нет
Цветовой диапазон : Limited
Основные цвета : BT.709
Характеристики трансфера : BT.709
Коэффициенты матрицы : BT.709
Аудио #1
Идентификатор : 2
Формат : AC-3
Формат/Информация : Audio Coding 3
Идентификатор кодека : A_AC3
Продолжительность : 1 ч. 25 м.
Вид битрейта : Постоянный
Битрейт : 640 Кбит/сек
Каналы : 6 каналов
Расположение каналов : Front: L C R, Side: L R, LFE
Частота : 48,0 КГц
Частота кадров : 31,250 кадров/сек (1536 SPF)
Битовая глубина : 16 бит
Метод сжатия : С потерями
Размер потока : 391 Мбайт (6%)
Заголовок : Профессиональный многоголосый (GreenРай Studio)
Язык : Russian
ServiceKind/String : Complete Main
Default : Да
Forced : Нет
Аудио #2
Идентификатор : 3
Формат : DTS
Формат/Информация : Digital Theater Systems
Идентификатор кодека : A_DTS
Продолжительность : 1 ч. 25 м.
Вид битрейта : Постоянный
Битрейт : 1509 Кбит/сек
Каналы : 6 каналов
Расположение каналов : Front: L C R, Side: L R, LFE
Частота : 48,0 КГц
Частота кадров : 93,750 кадра/сек (512 SPF)
Битовая глубина : 24 бит
Метод сжатия : С потерями
Размер потока : 921 Мбайт (15%)
Заголовок : Original
Язык : English
Default : Нет
Forced : Нет
Текст
Идентификатор : 4
Формат : PGS
Режим смешивания : zlib
Идентификатор кодека : S_HDMV/PGS
Идентификатор кодека/Информация : Picture based subtitle format used on BDs/HD-DVDs
Продолжительность : 1 ч. 23 м.
Битрейт : 10,0 Кбит/сек
ElementCount : 2173
Размер потока : 5,94 Мбайт (0%)
Язык : French
Default : Нет
Forced : Нет

Дополнительная информация:

Мультфильм основан на романе ливанского художника, писателя и философа Халиля Джебрана, мультфильм состоит из нескольких новелл, объединённых общей историей. Примечательно, что все новеллы были воплощены на экране разными режиссёрами и аниматорами. Тут вам и Роджер Аллерс («Король Лев») и безумно талантливый ирландский аниматор Томми Мур («Песнь Моря», «Тайна Келлс») и даже безумец от мира анимационного андеграунда Билл Плимтон («Идиоты и ангелы»).
Скриншоты:
Время раздачи: с 8:00 до 23:00 (до появления первых 3-5 скачавших)

To download the file disable ad blocking, and reload the page.

disable adblock How to disable ad blocking?

Download by magnet link 6.07 GB Download Torrent

Login using:

Similar topics



   
Current time is: 18-Nov 02:11 :: All times are UTC + 3