Reverend Raven & The Chain Smoking Altar Boys / My Life (Twentieth Anniversary) Жанр: Modern Electric Blues, Harmonica
Носитель: CD
Страна-производитель диска (релиза): US
Год издания: 2018
Издатель (лейбл): Nevermore Records
Номер по каталогу: 888295669641
Страна исполнителя (группы): US
Аудиокодек: FLAC (*.flac)
Тип рипа: tracks+.cue
Битрейт аудио: lossless
Продолжительность: 01:06:00
Источник (релизер): prod
Наличие сканов в содержимом раздачи: нет
Треклист:
01. Handyman (4:14)
02. BeeHive Baby (3:43)
03. Creature Of Habit (2:57)
04. Bad Little Girls (3:42)
05. I Want To Love You (4:20)
06. Once The Women Start Talking (3:18)
07. My Life (4:20)
08. Here Comes My Baby (4:16)
09. Praying For A Princess (4:05)
10. Big Bee (3:17)
11. Lookin' For Love (5:15)
12. Slow Burn (4:44)
13. Someday When I'm Dead And Gone (3:48)
14. I Can Do You Right (5:02)
15. She's Movin' On (4:44)
16. I'm Your Honey Boy (4:17)

Лог создания рипа

Exact Audio Copy V1.3 from 2. September 2016
EAC extraction logfile from 22. February 2018, 19:42
Reverend Raven & The Chain Smoking Altar Boys / My Life
Used drive : TSSTcorpCD/DVDW SH-S182M Adapter: 1 ID: 0
Read mode : SecureUtilize accurate stream : YesDefeat audio cache : YesMake use of C2 pointers : No
Read offset correction : 6Overread into Lead-In and Lead-Out : NoFill up missing offset samples with silence : YesDelete leading and trailing silent blocks : NoNull samples used in CRC calculations : YesUsed interface : Native Win32 interface for Win NT & 2000Gap handling : Appended to previous track
Used output format : User Defined EncoderSelected bitrate : 1024 kBit/sQuality : HighAdd ID3 tag : NoCommand line compressor : C:\Program Files\Exact Audio Copy\Flac\flac.exeAdditional command line options : -8 -e -p -V -T "ARTIST=%artist%" -T "TITLE=%title%" -T "ALBUM=%albumtitle%" -T "DATE=%year%" -T "TRACKNUMBER=%tracknr%" -T "GENRE=%genre%" -T "PERFORMER=%albuminterpret%" -T "COMPOSER=%composer%" %haslyrics%--tag-from-file=LYRICS="%lyricsfile%"%haslyrics% -T "ALBUMARTIST=%albumartist%" -T "DISCNUMBER=%cdnumber%" -T "TOTALDISCS=%totalcds%" -T "TOTALTRACKS=%numtracks%" -T "COMMENT=%comment%" %source% -o %dest%
TOC of the extracted CD
Track | Start | Length | Start sector | End sector --------------------------------------------------------- 1 | 0:00.00 | 4:13.68 | 0 | 19042 2 | 4:13.68 | 3:42.54 | 19043 | 35746 3 | 7:56.47 | 2:57.00 | 35747 | 49021 4 | 10:53.47 | 3:41.55 | 49022 | 65651 5 | 14:35.27 | 4:19.67 | 65652 | 85143 6 | 18:55.19 | 3:18.05 | 85144 | 99998 7 | 22:13.24 | 4:19.41 | 99999 | 119464 8 | 26:32.65 | 4:15.68 | 119465 | 138657 9 | 30:48.58 | 4:05.25 | 138658 | 157057 10 | 34:54.08 | 3:17.26 | 157058 | 171858 11 | 38:11.34 | 5:14.70 | 171859 | 195478 12 | 43:26.29 | 4:44.02 | 195479 | 216780 13 | 48:10.31 | 3:47.62 | 216781 | 233867 14 | 51:58.18 | 5:01.49 | 233868 | 256491 15 | 56:59.67 | 4:43.38 | 256492 | 277754 16 | 61:43.30 | 4:16.45 | 277755 | 296999
Track 1
Filename F:\Nueva carpeta (4)\01 Handyman.wav
Pre-gap length 0:00:02.00
Peak level 86.1 % Extraction speed 1.8 X Track quality 100.0 % Test CRC 8EA00EB5 Copy CRC 8EA00EB5 Track not present in AccurateRip database Copy OK
Track 2
Filename F:\Nueva carpeta (4)\02 BeeHive Baby.wav
Pre-gap length 0:00:00.62
Peak level 86.1 % Extraction speed 2.0 X Track quality 100.0 % Test CRC 8F944BCE Copy CRC 8F944BCE Track not present in AccurateRip database Copy OK
Track 3
Filename F:\Nueva carpeta (4)\03 Creature Of Habit.wav
Peak level 86.1 % Extraction speed 2.1 X Track quality 100.0 % Test CRC 46882532 Copy CRC 46882532 Track not present in AccurateRip database Copy OK
Track 4
Filename F:\Nueva carpeta (4)\04 Bad Little Girls.wav
Peak level 86.1 % Extraction speed 2.0 X Track quality 99.9 % Test CRC 85F788A5 Copy CRC 85F788A5 Track not present in AccurateRip database Copy OK
Track 5
Filename F:\Nueva carpeta (4)\05 I Want To Love You.wav
Peak level 86.1 % Extraction speed 2.2 X Track quality 100.0 % Test CRC 265A5E75 Copy CRC 265A5E75 Track not present in AccurateRip database Copy OK
Track 6
Filename F:\Nueva carpeta (4)\06 Once The Women Start Talking.wav
Peak level 86.1 % Extraction speed 2.2 X Track quality 100.0 % Test CRC D73C65BE Copy CRC D73C65BE Track not present in AccurateRip database Copy OK
Track 7
Filename F:\Nueva carpeta (4)\07 My Life.wav
Peak level 86.1 % Extraction speed 2.3 X Track quality 100.0 % Test CRC 32B6AE4E Copy CRC 32B6AE4E Track not present in AccurateRip database Copy OK
Track 8
Filename F:\Nueva carpeta (4)\08 Here Comes My Baby.wav
Pre-gap length 0:00:00.82
Peak level 86.1 % Extraction speed 2.3 X Track quality 100.0 % Test CRC FE0EC8E6 Copy CRC FE0EC8E6 Track not present in AccurateRip database Copy OK
Track 9
Filename F:\Nueva carpeta (4)\09 Praying For A Princess.wav
Peak level 86.1 % Extraction speed 2.2 X Track quality 99.9 % Test CRC A6FFCB19 Copy CRC A6FFCB19 Track not present in AccurateRip database Copy OK
Track 10
Filename F:\Nueva carpeta (4)\10 Big Bee.wav
Peak level 86.1 % Extraction speed 2.3 X Track quality 100.0 % Test CRC 741DC6B6 Copy CRC 741DC6B6 Track not present in AccurateRip database Copy OK
Track 11
Filename F:\Nueva carpeta (4)\11 Lookin' For Love.wav
Peak level 86.1 % Extraction speed 2.4 X Track quality 100.0 % Test CRC FC8F8EF7 Copy CRC FC8F8EF7 Track not present in AccurateRip database Copy OK
Track 12
Filename F:\Nueva carpeta (4)\12 Slow Burn.wav
Pre-gap length 0:00:01.13
Peak level 86.1 % Extraction speed 2.5 X Track quality 100.0 % Test CRC 7D7A2EBF Copy CRC 7D7A2EBF Track not present in AccurateRip database Copy OK
Track 13
Filename F:\Nueva carpeta (4)\13 Someday When I'm Dead And Gone.wav
Peak level 86.1 % Extraction speed 2.5 X Track quality 100.0 % Test CRC 11B14B70 Copy CRC 11B14B70 Track not present in AccurateRip database Copy OK
Track 14
Filename F:\Nueva carpeta (4)\14 I Can Do You Right.wav
Peak level 86.1 % Extraction speed 2.5 X Track quality 100.0 % Test CRC C5E87E29 Copy CRC C5E87E29 Track not present in AccurateRip database Copy OK
Track 15
Filename F:\Nueva carpeta (4)\15 She's Movin' On.wav
Peak level 86.1 % Extraction speed 2.4 X Track quality 99.9 % Test CRC 28DB9A1B Copy CRC 28DB9A1B Track not present in AccurateRip database Copy OK
Track 16
Filename F:\Nueva carpeta (4)\16 I'm Your Honey Boy.wav
Peak level 86.1 % Extraction speed 2.5 X Track quality 100.0 % Test CRC 1B3ADAAF Copy CRC 1B3ADAAF Track not present in AccurateRip database Copy OK
None of the tracks are present in the AccurateRip database
No errors occurred
End of status report
---- CUETools DB Plugin V2.1.6
[CTDB TOCID: ys.gIxwsNwllzHE1MoUod1jkGx8-] disk not present in databaseSubmit result: ys.gIxwsNwllzHE1MoUod1jkGx8- has been uploaded
==== Log checksum 47087F0F1F06FEE10E71BB9DB01D90BE5B29045312BB915D1AAB2A15E2325287 ====

Содержание индексной карты (.CUE)

REM GENRE BluesREM DATE 2018REM DISCID E50F7810REM COMMENT "ExactAudioCopy v1.3"PERFORMER "Reverend Raven & The Chain Smoking Altar Boys"TITLE "My Life"REM COMPOSER ""FILE "01 Handyman.wav" WAVE  TRACK 01 AUDIO    TITLE "Handyman"    PERFORMER "Reverend Raven & The Chain Smoking Altar Boys"    REM COMPOSER ""    INDEX 01 00:00:00  TRACK 02 AUDIO    TITLE "BeeHive Baby"    PERFORMER "Reverend Raven & The Chain Smoking Altar Boys"    REM COMPOSER ""    INDEX 00 04:13:21FILE "02 BeeHive Baby.wav" WAVE    INDEX 01 00:00:00FILE "03 Creature Of Habit.wav" WAVE  TRACK 03 AUDIO    TITLE "Creature Of Habit"    PERFORMER "Reverend Raven & The Chain Smoking Altar Boys"    REM COMPOSER ""    INDEX 01 00:00:00FILE "04 Bad Little Girls.wav" WAVE  TRACK 04 AUDIO    TITLE "Bad Little Girls"    PERFORMER "Reverend Raven & The Chain Smoking Altar Boys"    REM COMPOSER ""    INDEX 01 00:00:00FILE "05 I Want To Love You.wav" WAVE  TRACK 05 AUDIO    TITLE "I Want To Love You"    PERFORMER "Reverend Raven & The Chain Smoking Altar Boys"    REM COMPOSER ""    INDEX 01 00:00:00FILE "06 Once The Women Start Talking.wav" WAVE  TRACK 06 AUDIO    TITLE "Once The Women Start Talking"    PERFORMER "Reverend Raven & The Chain Smoking Altar Boys"    REM COMPOSER ""    INDEX 01 00:00:00FILE "07 My Life.wav" WAVE  TRACK 07 AUDIO    TITLE "My Life"    PERFORMER "Reverend Raven & The Chain Smoking Altar Boys"    REM COMPOSER ""    INDEX 01 00:00:00  TRACK 08 AUDIO    TITLE "Here Comes My Baby"    PERFORMER "Reverend Raven & The Chain Smoking Altar Boys"    REM COMPOSER ""    INDEX 00 04:18:54FILE "08 Here Comes My Baby.wav" WAVE    INDEX 01 00:00:00FILE "09 Praying For A Princess.wav" WAVE  TRACK 09 AUDIO    TITLE "Praying For A Princess"    PERFORMER "Reverend Raven & The Chain Smoking Altar Boys"    REM COMPOSER ""    INDEX 01 00:00:00FILE "10 Big Bee.wav" WAVE  TRACK 10 AUDIO    TITLE "Big Bee"    PERFORMER "Reverend Raven & The Chain Smoking Altar Boys"    REM COMPOSER ""    INDEX 01 00:00:00FILE "11 Lookin' For Love.wav" WAVE  TRACK 11 AUDIO    TITLE "Lookin' For Love"    PERFORMER "Reverend Raven & The Chain Smoking Altar Boys"    REM COMPOSER ""    INDEX 01 00:00:00  TRACK 12 AUDIO    TITLE "Slow Burn"    PERFORMER "Reverend Raven & The Chain Smoking Altar Boys"    REM COMPOSER ""    INDEX 00 05:13:60FILE "12 Slow Burn.wav" WAVE    INDEX 01 00:00:00FILE "13 Someday When I'm Dead And Gone.wav" WAVE  TRACK 13 AUDIO    TITLE "Someday When I'm Dead And Gone"    PERFORMER "Reverend Raven & The Chain Smoking Altar Boys"    REM COMPOSER ""    INDEX 01 00:00:00FILE "14 I Can Do You Right.wav" WAVE  TRACK 14 AUDIO    TITLE "I Can Do You Right"    PERFORMER "Reverend Raven & The Chain Smoking Altar Boys"    REM COMPOSER ""    INDEX 01 00:00:00FILE "15 She's Movin' On.wav" WAVE  TRACK 15 AUDIO    TITLE "She's Movin' On"    PERFORMER "Reverend Raven & The Chain Smoking Altar Boys"    REM COMPOSER ""    INDEX 01 00:00:00FILE "16 I'm Your Honey Boy.wav" WAVE  TRACK 16 AUDIO    TITLE "I'm Your Honey Boy"    PERFORMER "Reverend Raven & The Chain Smoking Altar Boys"    REM COMPOSER ""    INDEX 01 00:00:00

Лог проверки качества

-----------------------
DON'T MODIFY THIS FILE
-----------------------
PERFORMER: auCDtect Task Manager, ver. 1.6.0 RC1 build 1.6.0.1Copyright (c) 2008-2010 y-soft. All rights reservedhttp://y-soft.org
ANALYZER: auCDtect: CD records authenticity detector, version 0.8.2Copyright (c) 2004 Oleg Berngardt. All rights reserved.Copyright (c) 2004 Alexander Djourik. All rights reserved.
FILE: 16 I'm Your Honey Boy.flac Size: 30446351 Hash: BD26B621140CC602CCBC8FEDA6E27E7E Accuracy: -m0 Conclusion: CDDA 100% Signature: F2AA5D9AF8D0B07C4916D9DA02B5C034FA44F372FILE: 15 She's Movin' On.flac Size: 32670567 Hash: D5E6D66D9DC3D10BCC503C834FF832D5 Accuracy: -m0 Conclusion: CDDA 99% Signature: C3AF2991AD625432A315B8DDD596D12BD14ACE37FILE: 14 I Can Do You Right.flac Size: 33065119 Hash: E7A8748E1F92002736EC99A56503A12F Accuracy: -m0 Conclusion: CDDA 100% Signature: 8C760BDA172E89337E3941C2E0CEA5D0209D933EFILE: 13 Someday When I'm Dead And Gone.flac Size: 25549156 Hash: A96B17E4D4BD622B9CCCE35C16B39766 Accuracy: -m0 Conclusion: CDDA 99% Signature: F5A32C868BFCC8FD377351D5D77B4399F37E9B06FILE: 12 Slow Burn.flac Size: 32738853 Hash: C85F269D6DFB09CF07215515C259EB02 Accuracy: -m0 Conclusion: CDDA 100% Signature: 2C9FBC0C9328B895C8A571677F2FD48957522815FILE: 11 Lookin' For Love.flac Size: 38268493 Hash: 867B50865601B6B1CE4D83288706F867 Accuracy: -m0 Conclusion: CDDA 100% Signature: DA992DD30E7688AA281667B5651F97AAC56DAD86FILE: 10 Big Bee.flac Size: 22633840 Hash: BAEF088FF9F5B9050F940E60D0989110 Accuracy: -m0 Conclusion: CDDA 100% Signature: EF0636EABCC2C16F62B9202DF4D687A05D31023BFILE: 09 Praying For A Princess.flac Size: 29052114 Hash: CBC85EF711A28F4113A70D2EB7834A33 Accuracy: -m0 Conclusion: CDDA 100% Signature: 9D377ED3EBF329335F5C6D4AD2581B52B0F94B55FILE: 08 Here Comes My Baby.flac Size: 28909540 Hash: F0CD77EEF41638430EC990517A237C9F Accuracy: -m0 Conclusion: CDDA 99% Signature: B9A50D4AFB59678800D8EAD40ED3455C3AED2394FILE: 07 My Life.flac Size: 30369965 Hash: CFFEED059CAA566509B553FD4E6CD9D1 Accuracy: -m0 Conclusion: CDDA 100% Signature: E5444ED8C4B27C906466A0127EFAD81F3177D339FILE: 06 Once The Women Start Talking.flac Size: 19945057 Hash: 9FE8F20EBB927C9472DB4C414060FA9F Accuracy: -m0 Conclusion: CDDA 100% Signature: 27D2F6AABF5868E9A92434A43975FEE13C23727AFILE: 05 I Want To Love You.flac Size: 28161479 Hash: 364C3A8050A7CBB62734CBBB4E2C21A1 Accuracy: -m0 Conclusion: CDDA 100% Signature: 2386D0415526F77BF052AAF9C5B7B65B21FFD9E6FILE: 04 Bad Little Girls.flac Size: 25803866 Hash: DE26658F79CB3DDD1D4ABEC74FC89779 Accuracy: -m0 Conclusion: CDDA 100% Signature: C0112B9DDE40ED6AF3D4B81CFEE1217FD2BE61C0FILE: 03 Creature Of Habit.flac Size: 20860654 Hash: A3AA53BF1C762A9BDD37BB7DC65028D3 Accuracy: -m0 Conclusion: CDDA 100% Signature: 8ED1EAD6C125B86F49AC36EACD5104E023C97304FILE: 02 BeeHive Baby.flac Size: 23371469 Hash: 35B4692F67C05F7089B46B242A7B8AA1 Accuracy: -m0 Conclusion: CDDA 100% Signature: D74C73E3B02D35329EE3D44927CF534EED01115BFILE: 01 Handyman.flac Size: 27647727 Hash: 1D7AD7201BEE74DC52A278B7AD3FE81A Accuracy: -m0 Conclusion: CDDA 100% Signature: 54DD83542061176A9F97CBFAAB893726210C4BE2

Dynamic Range Meter

foobar2000 1.3.9 / Dynamic Range Meter 1.1.1log date: 2018-03-02 12:12:33
--------------------------------------------------------------------------------Analyzed: Reverend Raven & The Chain Smoking Altar Boys / My Life--------------------------------------------------------------------------------
DR Peak RMS Duration Track--------------------------------------------------------------------------------DR7 -1.30 dB -9.29 dB 4:14 01-HandymanDR7 -1.30 dB -9.11 dB 3:43 02-BeeHive BabyDR6 -1.30 dB -8.47 dB 2:57 03-Creature Of HabitDR7 -1.30 dB -9.52 dB 3:42 04-Bad Little GirlsDR8 -1.30 dB -10.67 dB 4:20 05-I Want To Love YouDR9 -1.30 dB -11.62 dB 3:18 06-Once The Women Start TalkingDR8 -1.30 dB -10.54 dB 4:20 07-My LifeDR7 -1.30 dB -9.66 dB 4:16 08-Here Comes My BabyDR7 -1.30 dB -8.90 dB 4:05 09-Praying For A PrincessDR7 -1.30 dB -9.64 dB 3:17 10-Big BeeDR8 -1.30 dB -9.79 dB 5:15 11-Lookin' For LoveDR7 -1.30 dB -9.98 dB 4:44 12-Slow BurnDR9 -1.30 dB -11.05 dB 3:48 13-Someday When I'm Dead And GoneDR8 -1.30 dB -10.68 dB 5:02 14-I Can Do You RightDR7 -1.30 dB -10.09 dB 4:44 15-She's Movin' OnDR8 -1.30 dB -10.51 dB 4:17 16-I'm Your Honey Boy--------------------------------------------------------------------------------
Number of tracks: 16Official DR value: DR8
Samplerate: 44100 HzChannels: 2Bits per sample: 16Bitrate: 949 kbpsCodec: FLAC================================================================================
Наш новый диск "My Life" официально выпущен 9 февраля 2018 года и предварительные обзоры уже идут. Он содержит 16 оригиналов из наших предыдущих компакт-дисков, которые были ремикшированы или записаны с новым составом музыкантов, который включает в себя: Westside Andy, Madison Slim, Cadillac Pete Rahn, Benny Rickun, Big Al Groth, Jimmy Voegeli, Mickey Larson, Danny Moore, Ron Kovach, Andre Maritato, PT Pedersen SC, Brad Bill, Jeff Roberts, Spencer and Craig Panosh and Victor Span. Recorded at Making Sausage Studios in Milwaukee and engineered by Steve Hamilton.

To download the file disable ad blocking, and reload the page.

disable adblock How to disable ad blocking?

Download by magnet link 429 MB Download Torrent

Login using:

Similar topics



   
Current time is: 18-Nov 03:15 :: All times are UTC + 3