Freddie & the Screamers / Diddy Wah Doo
Жанр: Blues-Rock
Носитель: WEB
Год издания: 2012
Издатель (лейбл): (SnailWorx)
Страна исполнителя (группы): LA, CA
Аудиокодек: FLAC (*.flac)
Тип рипа: tracks
Битрейт аудио: lossless
Продолжительность: 42:03
Наличие сканов в содержимом раздачи: front

Tracklist:
01 Diddy Wah Doo 03:01
02 Automobile 04:08
03 Your Butt's Too Big 03:21
04 Can't Live With 'Em 03:08
05 Axe Is Gonna Fall 05:25
06 Is It Good To You Baby 03:03
07 Boney Legged Woman 03:07
08 Little Meat On The Side 03:02
09 Get A Life 02:26
10 Two Lovers 03:20
11 Long Hot Summer 04:42
12 You Can't Blame A Guy For Trying 03:21

Dynamic Range Meter

foobar2000 1.3.16 / Dynamic Range Meter 1.1.1log date: 2018-02-12 20:51:56
--------------------------------------------------------------------------------Analyzed: Freddie & the Screamers / Diddy Wah Doo--------------------------------------------------------------------------------
DR Peak RMS Duration Track--------------------------------------------------------------------------------DR9 -0.30 dB -10.62 dB 3:01 01-Diddy Wah DooDR9 -0.30 dB -10.48 dB 4:08 02-AutomobileDR10 -0.30 dB -12.10 dB 3:21 03-Your Butt's Too BigDR10 -0.30 dB -11.37 dB 3:08 04-Can't Live With 'EmDR11 -0.30 dB -13.95 dB 5:25 05-Axe Is Gonna FallDR10 -0.30 dB -11.67 dB 3:03 06-Is It Good To You BabyDR9 -0.30 dB -10.92 dB 3:07 07-Boney Legged WomanDR11 -0.30 dB -11.95 dB 3:02 08-Little Meat On The SideDR9 -0.30 dB -10.70 dB 2:26 09-Get A LifeDR10 -0.30 dB -11.24 dB 3:20 10-Two LoversDR10 -0.30 dB -12.27 dB 4:42 11-Long Hot SummerDR11 -0.30 dB -13.01 dB 3:21 12-You Can't Blame A Guy For Trying--------------------------------------------------------------------------------
Number of tracks: 12Official DR value: DR10
Samplerate: 44100 HzChannels: 2Bits per sample: 16Bitrate: 843 kbpsCodec: FLAC

Log Quality Checking

PERFORMER: auCDtect Task Manager, ver. 1.6.0 RC1 build 1.6.0.1Copyright (c) 2008-2010 y-soft. All rights reservedhttp://y-soft.org
ANALYZER: auCDtect: CD records authenticity detector, version 0.8.2Copyright (c) 2004 Oleg Berngardt. All rights reserved.Copyright (c) 2004 Alexander Djourik. All rights reserved.
FILE: 01 - Diddy Wah Doo.flac Size: 21424542 Hash: 7729EE11A8B3ADF8FCA2ECDE671402EC Accuracy: -m0 Conclusion: CDDA 100% Signature: C489502B0493D411E10DA346A86DEEE6BC2CCA21FILE: 02 - Automobile.flac Size: 27291493 Hash: 080F78DB2EFE9E67DF3E7BD65DB63C3B Accuracy: -m0 Conclusion: CDDA 100% Signature: 1D2BCB9E1AAA308D6738787F4836F75B965BE204FILE: 03 - Your Butt's Too Big.flac Size: 20199848 Hash: 3BC8B981CADB4A794BB15C7A44AE6886 Accuracy: -m0 Conclusion: CDDA 100% Signature: 1F49CAE430C82781C7F0E72FCF0D705776933AB7FILE: 04 - Can't Live With 'Em.flac Size: 21742785 Hash: E5E9B9424D15DF933593AAFF0C1249E2 Accuracy: -m0 Conclusion: CDDA 100% Signature: 8B0DD8EFFEBDD77C1D378B3FB3B3D03415EEBA4DFILE: 05 - Axe Is Gonna Fall.flac Size: 33219992 Hash: A81E09AC26D569FE7F39CCD6673D6BF3 Accuracy: -m0 Conclusion: CDDA 100% Signature: E127D704A48928A02A568C322C64690D2B4724F6FILE: 06 - Is It Good To You Baby.flac Size: 20440750 Hash: D86C95342380EE00901FCC64CEBC400F Accuracy: -m0 Conclusion: CDDA 100% Signature: C6325A4F1C4401BC1EE8F0DC7701377A4A97A0A7FILE: 07 - Boney Legged Woman.flac Size: 22532536 Hash: 7503723F89755ED8B2162F1C94130676 Accuracy: -m0 Conclusion: CDDA 100% Signature: A5DADB68F0685EBB60C1145DA57263925D314762FILE: 08 - Little Meat On The Side.flac Size: 20457024 Hash: E4E2A5A610C341DD73C7FBBDBA442B8E Accuracy: -m0 Conclusion: CDDA 100% Signature: 3B1920B9A8BAEEA41CD7C2E9B07ABDF53D5023E8FILE: 09 - Get A Life.flac Size: 17577414 Hash: 94181F0E11DEC4B8F05A346744336537 Accuracy: -m0 Conclusion: CDDA 100% Signature: F9FF1E03AA8DB9E5E8C95A8C24D75B42DC20675AFILE: 10 - Two Lovers.flac Size: 23499601 Hash: A8571A7B24DB8A58B4321BF5C6E97769 Accuracy: -m0 Conclusion: CDDA 100% Signature: 0B64307DDA4A2CC63566F7AF3072A42F804486C3FILE: 11 - Long Hot Summer.flac Size: 30208132 Hash: 79710B461C9C46E9FBE210096D987A29 Accuracy: -m0 Conclusion: CDDA 100% Signature: 0CA9F845CDE1CDFF95ABA0DCEF0C4FCC4865FE2BFILE: 12 - You Can't Blame A Guy For Trying.flac Size: 21443356 Hash: 49C5199B1E8A68B698716501E71B68B0 Accuracy: -m0 Conclusion: CDDA 100% Signature: 9E45E239CFB3DA9090CC97603849FD085ACFB9C5

Frequency Spectrum Screenshot

Все, сказанное мной в релизе альбома за 2009 год, относится и к этому релизу, зачем повторяться, поэтому, слушаем отличную музыку и вспоминаем славные деньки! VERY (Чес говоря, не понимаю причины выкладки этих альбомов в данном разделе, но так как все предыдущие релизы были помещены именно в нем, то я не стал "выпендриваться" и положил туда-же! Но, мне кажется, им место в соседней ветке! ИМХО! )
Freddie & the Screamers в разделе lossless...

To download the file disable ad blocking, and reload the page.

disable adblock How to disable ad blocking?

Download by magnet link 268 MB Download Torrent

Login using:

Similar topics



   
Current time is: 15-Nov 13:05 :: All times are UTC + 3