Michael Schenker Fest - Resurrection
Жанр: Hard Rock
Год издания диска: 2018
Носитель: WEB
Издатель (лейбл): Nuclear Blast Records
Страна: Germany
Аудиокодек: FLAC (*.flac)
Тип рипа: tracks
Битрейт аудио: lossless
Продолжительность: 00:52:17
Источник (релизер): 7digital.com
Наличие сканов в содержимом раздачи: нет
Треклист:
01. Heart and Soul (feat. Robin McAuley & Kirk Hammett)
02. Warrior (feat. Gary Barden, Graham Bonnet, Robin McAuley & Doogie White)
03. Take Me to the Church (feat. Doogie White)
04. Night Moods (feat. Graham Bonnet)
05. The Girl with the Stars in Her Eyes (feat. Doogie White)
06. Everest (feat. Graham Bonnet)
07. Messin' Around (feat. Gary Barden)
08. Time Knows When It's Time (feat. Robin McAuley)
09. Anchors Away (feat. Doogie White)
10. Salvation
11. Livin' a Life Worth Livin' (feat. Gary Barden)
12. The Last Supper (feat. Gary Barden, Graham Bonnet, Robin McAuley & Doogie White)

Лог проверки качества

-----------------------
DON'T MODIFY THIS FILE
-----------------------
PERFORMER: auCDtect Task Manager, ver. 1.5.1RC4 build 1.5.1.5Copyright (c) 2008-2010 y-soft. All rights reservedhttp://y-soft.org
ANALYZER: auCDtect: CD records authenticity detector, version 0.8.2Copyright (c) 2004 Oleg Berngardt. All rights reserved.Copyright (c) 2004 Alexander Djourik. All rights reserved.
FILE: 12. The Last Supper.flac Size: 37937707 Hash: 068551FAEE411D6DB48042DB2871604C Accuracy: -m0 Conclusion: CDDA 100% Signature: 4A67B7C3949BEF27E2008D9A8ACAC01794458A55FILE: 11. Livin' a Life Worth Livin'.flac Size: 27911532 Hash: F4A32AF1EB34BB1350BE2B1E011712AD Accuracy: -m0 Conclusion: CDDA 100% Signature: 878E9D876B34259A533635FA7807E440F86130F7FILE: 10. Salvation.flac Size: 26586024 Hash: FCCB978E973A5CD5114A4B6877FDBEE3 Accuracy: -m0 Conclusion: CDDA 100% Signature: 1E89A3665EF4CD39D44095C2873E25D5CA6B2ACBFILE: 09. Anchors.flac Size: 33028965 Hash: DB61C4A72BB94844380707816C7BD6E6 Accuracy: -m0 Conclusion: CDDA 100% Signature: 6F20CB50776DD2C11070F9C1B52F995215F7D90BFILE: 08. Time Knows When It's Time.flac Size: 33641089 Hash: 759C0C0284BBD6034B3364826530BF99 Accuracy: -m0 Conclusion: CDDA 100% Signature: 39561B671EAB1F6C70B62CE0436E97242C4A48A4FILE: 07. Messin' Around.flac Size: 36883277 Hash: B51628E1D5B1CE820DBD2FFE50B9E662 Accuracy: -m0 Conclusion: CDDA 100% Signature: D80E4454C57DBF4588C205D737F9B62CFF812BB6FILE: 06. Everest.flac Size: 29915837 Hash: B755F191AC1F7AB9EC389680C02E99DF Accuracy: -m0 Conclusion: CDDA 100% Signature: 1D89D19D5E16E0C01592EDB78E1B4E76DFEF8307FILE: 05. The Girl With The Stars in Her Eyes.flac Size: 31169871 Hash: AD9CB8F60C0B9E34372EEE944F93FDBD Accuracy: -m0 Conclusion: CDDA 100% Signature: 4389268266E063F86AE084F071BC1E2919EB0C21FILE: 04. Night Moods.flac Size: 34141306 Hash: 188B55F1687088F0D4C5B6EEDA971B74 Accuracy: -m0 Conclusion: CDDA 100% Signature: F0F59DDF49C2E7402413EAC45397EA74178EED82FILE: 03. Take Me To The Church.flac Size: 38464240 Hash: D52E89FBC2888BDA8A62502F79D8D3F4 Accuracy: -m0 Conclusion: CDDA 100% Signature: 269E4204A7FE6544CD799885C871404DAE4702B5FILE: 02. Warrior.flac Size: 41153822 Hash: 4FB04C3838332CD21905D43EA3EBEC5B Accuracy: -m0 Conclusion: CDDA 100% Signature: 4F47465FFCF751DAAF52F7E336F0FA780F8DFD46FILE: 01. Heart and Soul.flac Size: 34588889 Hash: B767F3BE09158BED37222896776C69AF Accuracy: -m0 Conclusion: CDDA 100% Signature: 7ED1790F000654980A1F87EA92BCD4DF89B5A582

Замер динамического диапазона

foobar2000 1.3.9 / Замер динамического диапазона (DR) 1.1.1Дата отчёта:  2018-03-02 10:36:11
--------------------------------------------------------------------------------Анализ: Michael Schenker Fest / Resurrection--------------------------------------------------------------------------------
DR Пики RMS Продолжительность трека--------------------------------------------------------------------------------DR5 -0.70 дБ -6.00 дБ 4:21 01-Heart and SoulDR6 -0.70 дБ -8.14 дБ 5:22 02-WarriorDR6 -0.70 дБ -7.76 дБ 4:46 03-Take Me To The ChurchDR8 -0.70 дБ -9.66 дБ 4:30 04-Night MoodsDR6 -1.32 дБ -8.44 дБ 3:49 05-The Girl With The Stars in Her EyesDR5 -0.70 дБ -6.21 дБ 3:42 06-EverestDR6 -0.70 дБ -8.07 дБ 4:34 07-Messin' AroundDR5 -0.70 дБ -6.31 дБ 4:23 08-Time Knows When It's TimeDR6 -0.70 дБ -8.42 дБ 4:26 09-AnchorsDR5 -0.70 дБ -6.46 дБ 3:38 10-SalvationDR8 -0.70 дБ -10.03 дБ 3:52 11-Livin' a Life Worth Livin'DR7 -1.60 дБ -9.74 дБ 4:52 12-The Last Supper--------------------------------------------------------------------------------
Количество треков: 12Реальные значения DR: DR6
Частота: 44100 ГцКаналов: 2Разрядность: 16Битрейт: 1037 кбит/сКодек: FLAC================================================================================
Доп. информация

Состав

Michael Schenker - Lead and Rythym Guitars
Doogie White - Vocals
Herman Rarebell - Drums
Francis Buchholz - Bass
Wayne Findlay - 7 String Guitar, Keyboards

To download the file disable ad blocking, and reload the page.

disable adblock How to disable ad blocking?

Download by magnet link 387 MB Download Torrent

Login using:

Similar topics



   
Current time is: 15-Nov 13:05 :: All times are UTC + 3