7 минут / 7 minuti
Страна: Италия Франция Швейцария
Производство: A&G, Amer, CineFinance Italia, Lazio Innova, Manny Films, Rai Cinema, Sky Cinema, SRG SSR, Ventura Film
Год выпуска: 2016
Жанр: драма
Продолжительность: 01:30:55
Режиссер: Микеле Плачидо
Авторы сценария: Микеле Плачидо, Тони Трупия
В ролях: Кристиана Капотонди, Фиорелла Маннойя, Мария Национале, Оттавия Пикколо, Анн Косиньи, Виоланте Плачидо, Клеманс Поэзи
Описание: Чтобы сохранить производство, владельцы текстильной фабрики продают контрольный пакет акций международной корпорации. Кажется, что сокращений не будет, и служащие, наконец, могут спокойно выдохнуть, но в договоре есть один пункт, который должен быть подписан рабочим советом. Одиннадцать женщин должны решить за себя и своих коллег — соглашаться на это предложение или нет...

Перевод: Профессиональный (многоголосый, закадровый) | студия СВ-Дубль (по заказу Камер-Тон-Медиа)
Субтитры: нет-Качество: BDRip 1080p
Формат: МКV
Видео кодек: AVC
Аудио кодек: АС3 | DTS
Видео: 1920x800 (2.40:1), 24.000 fps, MPEG-4 AVC ~9 800 kbps avg
Аудио №1: 48.0 kHz, AC3 Dolby Digital, 2/0 (L,R) ch, ~192 kbps | RUS / СВ-Дубль
Аудио №2: 48.0 kHz, Digital Theater Systems, 3/2 (L,C,R,l,r) + LFE ch, ~1509 kbps | ITA
Дата премьеры (мир): 21 октября 2016

Media Info

General
Уникальный идентификатор : 189168611794214390533466810549559591541 (0x8E508CA56E2027B88EEEA03848DB8275)
Полное имя : 7.Minuti.2016.iTALiAN.DTS.1080p.BluRay.x264-BLUWORLD.mkv
Формат : Matroska
Версия формата : Version 2
Размер файла : 7,30 Гбайт
Продолжительность : 1 ч. 30 м.
Режим общего битрейта : Переменный
Общий поток : 11,5 Мбит/сек
Название фильма : 7 минут / Семь минут / 7 Minuti (2016)
Дата кодирования : UTC 2018-02-26 16:07:41
Программа кодирования : mkvmerge v8.2.0 ('World of Adventure') 64bit
Библиотека кодирования : libebml v1.3.1 + libmatroska v1.4.2
Видео
Идентификатор : 1
Формат : AVC
Формат/Информация : Advanced Video Codec
Профиль формата : High@L4.1
Параметр CABAC формата : Да
Параметр ReFrames формата : 5 кадров
Идентификатор кодека : V_MPEG4/ISO/AVC
Продолжительность : 1 ч. 30 м.
Вид битрейта : Переменный
Битрейт : 9800 Кбит/сек
Максимальный битрейт : 62,5 Мбит/сек
Ширина : 1920 пикселей
Высота : 800 пикселей
Соотношение сторон : 2,40:1
Режим частоты кадров : Постоянный
Частота кадров : 24,000 кадра/сек
Цветовое пространство : YUV
Субдискретизация насыщенности : 4:2:0
Битовая глубина : 8 бит
Тип развёртки : Прогрессивная
Бит/(Пиксели*Кадры) : 0.266
Размер потока : 6,08 Гбайт (83%)
Библиотека кодирования : x264 core 148 r2762 90a61ec
Настройки программы : cabac=1 / ref=5 / deblock=1:0:0 / analyse=0x3:0x113 / me=hex / subme=8 / psy=1 / psy_rd=1.00:0.00 / mixed_ref=1 / me_range=16 / chroma_me=1 / trellis=2 / 8x8dct=1 / cqm=0 / deadzone=21,11 / fast_pskip=1 / chroma_qp_offset=-2 / threads=12 / lookahead_threads=2 / sliced_threads=0 / nr=0 / decimate=1 / interlaced=0 / bluray_compat=0 / constrained_intra=0 / bframes=3 / b_pyramid=0 / b_adapt=1 / b_bias=0 / direct=3 / weightb=1 / open_gop=0 / weightp=2 / keyint=240 / keyint_min=24 / scenecut=40 / intra_refresh=0 / rc_lookahead=50 / rc=2pass / mbtree=1 / bitrate=9800 / ratetol=1.0 / qcomp=0.60 / qpmin=0 / qpmax=69 / qpstep=4 / cplxblur=20.0 / qblur=0.5 / vbv_maxrate=62500 / vbv_bufsize=62500 / nal_hrd=vbr / filler=0 / ip_ratio=1.40 / aq=1:1.00
Default : Да
Forced : Нет
Аудио #1
Идентификатор : 2
Формат : AC-3
Формат/Информация : Audio Coding 3
Расширение режима : CM (complete main)
Параметр Endianness формата : Big
Идентификатор кодека : A_AC3
Продолжительность : 1 ч. 30 м.
Вид битрейта : Постоянный
Битрейт : 192 Кбит/сек
Каналы : 2 канала
Расположение каналов : Front: L R
Частота : 48,0 КГц
Частота кадров : 31,250 кадров/сек (1536 spf)
Метод сжатия : С потерями
Размер потока : 125 Мбайт (2%)
Заголовок : Профессиональный (многоголосый закадровый) СВ-Дубль
Язык : Russian
Default : Да
Forced : Нет
Аудио #2
Идентификатор : 3
Формат : DTS
Формат/Информация : Digital Theater Systems
Режим : 16
Параметр Endianness формата : Big
Идентификатор кодека : A_DTS
Продолжительность : 1 ч. 30 м.
Вид битрейта : Постоянный
Битрейт : 1509 Кбит/сек
Каналы : 6 каналов
Расположение каналов : Front: L C R, Side: L R, LFE
Частота : 48,0 КГц
Частота кадров : 93,750 кадра/сек (512 spf)
Битовая глубина : 24 бит
Метод сжатия : С потерями
Размер потока : 981 Мбайт (13%)
Заголовок : Ita. DTS 1510 Kbps
Язык : Italian
Default : Нет
Forced : Нет
Меню
00:00:00.000 : en:00:00:00.000
00:02:12.167 : en:00:02:12.167
00:08:54.500 : en:00:08:54.500
00:15:14.708 : en:00:15:14.708
00:20:35.125 : en:00:20:35.125
00:26:43.292 : en:00:26:43.292
00:32:33.750 : en:00:32:33.750
00:38:07.375 : en:00:38:07.375
00:45:49.042 : en:00:45:49.042
00:50:12.583 : en:00:50:12.583
00:58:11.333 : en:00:58:11.333
01:03:06.625 : en:01:03:06.625
01:10:02.333 : en:01:10:02.333
01:16:34.917 : en:01:16:34.917
01:22:21.833 : en:01:22:21.833
01:26:55.417 : en:01:26:55.417

Скриншоты

To download the file disable ad blocking, and reload the page.

disable adblock How to disable ad blocking?

Download by magnet link 7.3 GB Download Torrent

Login using:

Similar topics



   
Current time is: 15-Nov 14:21 :: All times are UTC + 3