Информация о фильме
Название: Немой
Оригинальное название: Mute
Год выхода: 2018
Жанр: фантастика, триллер, детектив, драма
Режиссер: Дункан Джонс
В ролях: Levi Eisenblätter, Рози Шоу, Ойген Баудер, Ливия Маттес, Jarah Maria Anders, Caroline Peters, Лаура Де Бур, Грегуар Грос, Александр Скарсгард, Сейнеб Салех
О фильме:
Берлин, 2052 год. Лео Байлер — немой бармен, и у него больше нет причин для существования: его любимая женщина исчезает. Поиски приводят Лео в подземный город, где он знакомится с парой американских хирургов. Лео не может понять, кем являются его новые знакомые — то ли они могут ему помочь, то ли ему стоит бежать от них подальше.
ПРИСУТСТВУЕТ НЕНОРМАТИВНАЯ ЛЕКСИКА

Страна: Великобритания, Германия
Студия: Liberty Films UK, Studio Babelsberg
Продолжительность: 02:06:38
Перевод: профессиональный многоголосный, закадровый [NewStudio]
Файл
Кодек: H.264
Качество: WEBRip 720p
Видео: AVC, 1280x640 (2.000), 24 fps ~ 7700 Kbps
Звук:
AC3, 48 KHz, 6 ch ~ 384 Kb/s (русский)
AC3, 48 KHz, 6 ch ~ 384 Kb/s (английский)
Субтитры: отсутствуют

MI:

Общее
Уникальный идентификатор : 250305094512941115994594521280941977669 (0xBC4F01F705C61E6181AC873DC31CF045)
Полное имя : Q:TorFMute.2018.WEBDL.720p.NewStudio.mkv
Формат : Matroska
Версия формата : Version 2
Размер файла : 7,64 Гбайт
Продолжительность : 2 ч. 6 м.
Общий поток : 8641 Кбит/сек
Дата кодирования : UTC 2018-03-02 09:28:19
Программа кодирования : mkvmerge v5.4.0 ('Piper') built on Mar 10 2012 13:34:39
Библиотека кодирования : libebml v1.2.3 + libmatroska v1.3.0
DURATION : 02:06:38.624000000
NUMBER_OF_FRAMES : 237457
NUMBER_OF_BYTES : 364733952
_STATISTICS_WRITING_APP : mkvmerge v9.8.0 ('Kuglblids') 64bit
_STATISTICS_WRITING_DATE_UTC : 2018-02-28 16:31:33
_STATISTICS_TAGS : BPS DURATION NUMBER_OF_FRAMES NUMBER_OF_BYTES
Видео
Идентификатор : 1
Формат : AVC
Формат/Информация : Advanced Video Codec
Профиль формата : High@L4.1
Параметр CABAC формата : Да
Параметр ReFrames формата : 10 кадров
Идентификатор кодека : V_MPEG4/ISO/AVC
Продолжительность : 2 ч. 6 м.
Битрейт : 7701 Кбит/сек
Ширина : 1280 пикселей
Высота : 640 пикселей
Соотношение сторон : 2,000
Частота кадров : 24,000 кадра/сек
Цветовое пространство : YUV
Субдискретизация насыщенности : 4:2:0
Битовая глубина : 8 бит
Тип развёртки : Прогрессивная
Бит/(Пиксели*Кадры) : 0.392
Размер потока : 6,81 Гбайт (89%)
Библиотека кодирования : x264 core 152 r2851kMod ba24899
Настройки программы : cabac=1 / ref=10 / deblock=1:-3:-3 / analyse=0x3:0x133 / me=umh / subme=10 / psy=1 / fade_compensate=0.00 / psy_rd=1.00:0.00 / mixed_ref=1 / me_range=48 / chroma_me=1 / trellis=2 / 8x8dct=1 / cqm=0 / deadzone=21,11 / fast_pskip=0 / chroma_qp_offset=-2 / threads=12 / lookahead_threads=2 / sliced_threads=0 / nr=0 / decimate=0 / interlaced=0 / bluray_compat=0 / constrained_intra=0 / bframes=8 / b_pyramid=2 / b_adapt=2 / b_bias=0 / direct=3 / weightb=1 / open_gop=0 / weightp=2 / keyint=250 / keyint_min=24 / scenecut=40 / intra_refresh=0 / rc=crf / mbtree=0 / crf=17.0000 / qcomp=0.60 / qpmin=0 / qpmax=69 / qpstep=4 / ip_ratio=1.30 / pb_ratio=1.20 / aq=3:0.80
Язык : English
Default : Да
Forced : Нет
DURATION : 02:06:38.375000000
NUMBER_OF_FRAMES : 182361
NUMBER_OF_BYTES : 7475731626
_STATISTICS_WRITING_APP : mkvmerge v9.8.0 ('Kuglblids') 64bit
_STATISTICS_WRITING_DATE_UTC : 2018-02-28 16:31:33
_STATISTICS_TAGS : BPS DURATION NUMBER_OF_FRAMES NUMBER_OF_BYTES
Аудио #1
Идентификатор : 2
Формат : AC-3
Формат/Информация : Audio Coding 3
Расширение режима : CM (complete main)
Идентификатор кодека : A_AC3
Продолжительность : 2 ч. 6 м.
Вид битрейта : Постоянный
Битрейт : 384 Кбит/сек
Каналы : 6 каналов
Расположение каналов : Front: L C R, Side: L R, LFE
Частота : 48,0 КГц
Битовая глубина : 16 бит
Метод сжатия : С потерями
Размер потока : 348 Мбайт (4%)
Заголовок : NewStudio
Язык : Russian
Default : Да
Forced : Нет
Аудио #2
Идентификатор : 3
Формат : AC-3
Формат/Информация : Audio Coding 3
Расширение режима : CM (complete main)
Идентификатор кодека : A_AC3
Продолжительность : 2 ч. 6 м.
Вид битрейта : Постоянный
Битрейт : 384 Кбит/сек
Каналы : 6 каналов
Расположение каналов : Front: L C R, Side: L R, LFE
Частота : 48,0 КГц
Битовая глубина : 16 бит
Метод сжатия : С потерями
Размер потока : 348 Мбайт (4%)
Язык : English
Default : Нет
Forced : Нет

Скриншоты

To download the file disable ad blocking, and reload the page.

disable adblock How to disable ad blocking?

Download by magnet link 7.64 GB Download Torrent

Login using:

Similar topics

Немой / Mute (2018) WEBRip 720p | Jaskier
 2.22 GB   14 | 0   13-Apr-18 08:30   1
Немой / Mute (2018) WEBRip 1080p | Jaskier
 3.68 GB   17 | 0   13-Apr-18 08:30   1


   
Current time is: 15-Nov 14:23 :: All times are UTC + 3