Леди Бёрд / Lady Bird
Страна: США
Производство: Film 360, Scott Rudin Productions
Год выпуска: 2017
Жанр: драма, комедия
Продолжительность: 01:34:04
Режиссер: Грета Гервиг
Автор сценария: Грета Гервиг
В ролях: Сирша Ронан, Лори Меткаф, Трэйси Леттс, Лукас Хеджес, Тимоти Шаламе, Бини Фелдштейн, Лоис Смит, Стивен Хендерсон, Одейя Раш
Описание: Кристина МакФерсон учится в консервативной католической школе в Сакраменто. Она ищет себя, своё место в мире и пытается быть не похожей на других. Её волосы выкрашены в странный красно-розовый цвет, а имя Леди Бёрд она дала себе сама и именно так просит её называть. И главная её мечта — вырваться из этого провинциального захолустья и поехать учиться в Нью-Йорк...

Перевод: Любительский (многоголосый, закадровый) | HDrezka Studio
Субтитры: русские, английские-Качество: BDRip 720p
Формат: МКV
Видео кодек: AVC
Аудио кодек: АС3 | DTS
Видео: 1280x690 (1.85:1), 23.976 fps, MPEG-4 AVC ~5 000 kbps avg
Аудио №1: 48.0 kHz, AC3 Dolby Digital, 2/0 (L,R) ch, ~192 kbps | RUS / HDrezka Studio
Аудио №2: 48 kHz, Digital Theater Systems, 3/2 (L,C,R,l,r) + LFE ch, ~1509 kbps | ENG
Формат субтитров: UTF-8 Plain Text
Дата премьеры (мир): 1 сентября 2017
Дата премьеры (РФ): 15 марта 2018, «UPI»-
Приз Золотой глобус, 2018 год
» Лучшая женская роль (комедия или мюзикл) (Сирша Ронан)
» Лучший фильм (комедия или мюзикл)

Media Info

General
Уникальный идентификатор : 203284624550481913538764195905957247591 (0x98EF31CF0BE7E09C831E45775B2BBA67)
Полное имя : Lady.Bird.2017.MVO.BDRip.720p.mkv
Формат : Matroska
Версия формата : Version 2
Размер файла : 4,40 Гбайт
Продолжительность : 1 ч. 34 м.
Общий поток : 6696 Кбит/сек
Дата кодирования : UTC 2018-03-02 09:28:16
Программа кодирования : mkvmerge v7.8.0 ('River Man') 32bit built on Apr 3 2015 12:11:22
Библиотека кодирования : libebml v1.3.1 + libmatroska v1.4.2
Видео
Идентификатор : 1
Формат : AVC
Формат/Информация : Advanced Video Codec
Профиль формата : High@L4.1
Настройки формата : CABAC / 9 Ref Frames
Параметр CABAC формата : Да
Параметр RefFrames формата : 9 кадров
Идентификатор кодека : V_MPEG4/ISO/AVC
Продолжительность : 1 ч. 34 м.
Битрейт : 5000 Кбит/сек
Ширина : 1280 пикселей
Высота : 690 пикселей
Соотношение сторон : 1,85:1
Режим частоты кадров : Постоянный
Частота кадров : 23,976 (24000/1001) кадра/сек
Цветовое пространство : YUV
Субдискретизация насыщенности : 4:2:0
Битовая глубина : 8 бит
Тип развёртки : Прогрессивная
Бит/(Пиксели*Кадры) : 0.236
Размер потока : 3,19 Гбайт (73%)
Заголовок : HDC
Библиотека кодирования : x264 core 148 r2665kMod a01e339
Настройки программы : cabac=1 / ref=9 / deblock=1:-3:-3 / analyse=0x3:0x133 / me=umh / subme=11 / psy=1 / fade_compensate=0.00 / psy_rd=1.05:0.00 / mixed_ref=1 / me_range=32 / chroma_me=1 / trellis=2 / 8x8dct=1 / cqm=0 / deadzone=21,11 / fast_pskip=0 / chroma_qp_offset=-2 / threads=22 / lookahead_threads=3 / sliced_threads=0 / nr=0 / decimate=0 / interlaced=0 / bluray_compat=0 / constrained_intra=0 / fgo=0 / bframes=8 / b_pyramid=2 / b_adapt=2 / b_bias=0 / direct=3 / weightb=1 / open_gop=0 / weightp=2 / keyint=240 / keyint_min=24 / scenecut=40 / intra_refresh=0 / rc=2pass / mbtree=0 / bitrate=5000 / ratetol=1.0 / qcomp=0.70 / qpmin=0 / qpmax=69 / qpstep=4 / cplxblur=20.0 / qblur=0.5 / ip_ratio=1.20 / pb_ratio=1.20 / aq=3:0.85
Язык : English
Default : Да
Forced : Нет
Аудио #1
Идентификатор : 2
Формат : AC-3
Формат/Информация : Audio Coding 3
Идентификатор кодека : A_AC3
Продолжительность : 1 ч. 34 м.
Вид битрейта : Постоянный
Битрейт : 192 Кбит/сек
Каналы : 2 канала
Расположение каналов : Front: L R
Частота : 48,0 КГц
Частота кадров : 31,250 кадров/сек (1536 SPF)
Битовая глубина : 16 бит
Метод сжатия : С потерями
Размер потока : 129 Мбайт (3%)
Заголовок : MVO
Язык : Russian
Default : Да
Forced : Нет
Аудио #2
Идентификатор : 3
Формат : DTS
Формат/Информация : Digital Theater Systems
Идентификатор кодека : A_DTS
Продолжительность : 1 ч. 34 м.
Вид битрейта : Постоянный
Битрейт : 1509 Кбит/сек
Каналы : 6 каналов
Расположение каналов : Front: L C R, Side: L R, LFE
Частота : 48,0 КГц
Частота кадров : 93,750 кадра/сек (512 SPF)
Битовая глубина : 24 бит
Метод сжатия : С потерями
Размер потока : 1015 Мбайт (23%)
Язык : English
Default : Нет
Forced : Нет
Текст #1
Идентификатор : 4
Формат : UTF-8
Идентификатор кодека : S_TEXT/UTF8
Идентификатор кодека/Информация : UTF-8 Plain Text
Заголовок : Full
Язык : Russian
Default : Нет
Forced : Нет
Текст #2
Идентификатор : 5
Формат : UTF-8
Идентификатор кодека : S_TEXT/UTF8
Идентификатор кодека/Информация : UTF-8 Plain Text
Заголовок : Full
Язык : English
Default : Нет
Forced : Нет
Текст #3
Идентификатор : 6
Формат : UTF-8
Идентификатор кодека : S_TEXT/UTF8
Идентификатор кодека/Информация : UTF-8 Plain Text
Заголовок : SDH
Язык : English
Default : Нет
Forced : Нет
Меню
00:00:00.000 : en:00:00:00.000
00:05:59.651 : en:00:05:59.651
00:11:17.427 : en:00:11:17.427
00:18:20.391 : en:00:18:20.391
00:22:15.960 : en:00:22:15.960
00:27:46.290 : en:00:27:46.290
00:33:56.284 : en:00:33:56.284
00:40:33.639 : en:00:40:33.639
00:45:51.040 : en:00:45:51.040
00:51:02.017 : en:00:51:02.017
00:57:29.071 : en:00:57:29.071
01:03:11.371 : en:01:03:11.371
01:08:32.358 : en:01:08:32.358
01:14:06.066 : en:01:14:06.066
01:21:17.039 : en:01:21:17.039
01:25:26.455 : en:01:25:26.455

Скриншоты

To download the file disable ad blocking, and reload the page.

disable adblock How to disable ad blocking?

Download by magnet link 4.4 GB Download Torrent

Login using:

Similar topics

Леди Бёрд / Lady Bird (2017) BDRip 1080p | HDrezka Studio
 8.67 GB   12 | 2   02-Mar-18 14:30   0


   
Current time is: 15-Nov 13:12 :: All times are UTC + 3