Steve EarleTerraplane- -
Жанр: blues, outlaw country, americana
Страна-производитель диска: USA
Год издания: 2015
Издатель (лейбл): New West Records
Номер по каталогу: NW 6329
Страна: USA
Аудиокодек: FLAC (*.flac)
Тип рипа: image+.cue
Битрейт аудио: lossless
Продолжительность: 36'10"
Источник (релизер): собственный диск
Наличие сканов в содержимом раздачи: 600dpi, JPG
-

tracklist

01. Baby Baby Baby
02. You're The Best Lover That I Ever Had
03. The Tennessee Kid
04. Ain't Nobody s Daddy Now
05. Better Off Alone
06. The Usual Time
07. Go Go Boots Are Back
08. Acquainted With The Wind
09. Baby's Just As Mean As Me
10. Gamblin Blues
11. King Of The Blues
-

eac

Exact Audio Copy V1.0 beta 6 from 9. April 2015
EAC extraction logfile from 1. March 2018, 13:05
Steve Earle and the Dukes / Terraplane
Used drive : PLEXTOR DVDR PX-891SA Adapter: 0 ID: 2
Read mode : SecureUtilize accurate stream : YesDefeat audio cache : YesMake use of C2 pointers : No
Read offset correction : 6Overread into Lead-In and Lead-Out : NoFill up missing offset samples with silence : YesDelete leading and trailing silent blocks : NoNull samples used in CRC calculations : YesUsed interface : Installed external ASPI interface
Used output format : User Defined EncoderSelected bitrate : 320 kBit/sQuality : HighAdd ID3 tag : NoCommand line compressor : C:\Program Files\Exact Audio Copy 1.b6\Exact Audio Copy\Flac\flac.exeAdditional command line options : -V -8 -T "Genre=%genre%" -T "Artist=%artist%" -T "Title=%title%" -T "Album=%albumtitle%" -T "Date=%year%" -T "Tracknumber=%tracknr%" -T "Comment=%comment%" %source%
TOC of the extracted CD
Track | Start | Length | Start sector | End sector --------------------------------------------------------- 1 | 0:00.00 | 3:37.03 | 0 | 16277 2 | 3:37.03 | 4:07.23 | 16278 | 34825 3 | 7:44.26 | 4:05.28 | 34826 | 53228 4 | 11:49.54 | 2:29.07 | 53229 | 64410 5 | 14:18.61 | 4:26.62 | 64411 | 84422 6 | 18:45.48 | 2:59.25 | 84423 | 97872 7 | 21:44.73 | 3:33.16 | 97873 | 113863 8 | 25:18.14 | 2:20.20 | 113864 | 124383 9 | 27:38.34 | 2:35.32 | 124384 | 136040 10 | 30:13.66 | 2:04.50 | 136041 | 145390 11 | 32:18.41 | 3:51.56 | 145391 | 162771
Range status and errors
Selected range
Filename L:\Audio\SWF\CD\Steve Earle\2015. Steve Earle - Terraplane (2015 New West Records, NW 6329, USA)\Steve Earle and the Dukes - Terraplane.wav
Peak level 98.5 % Extraction speed 6.9 X Range quality 99.9 % Test CRC 30C8C786 Copy CRC 30C8C786 Copy OK
No errors occurred
AccurateRip summary
Track 1 accurately ripped (confidence 109) [6AB67FE5] (AR v2)Track 2 accurately ripped (confidence 109) [E4D84331] (AR v2)Track 3 accurately ripped (confidence 109) [2D6FB218] (AR v2)Track 4 accurately ripped (confidence 109) [48950799] (AR v2)Track 5 accurately ripped (confidence 108) [42C95BAB] (AR v2)Track 6 accurately ripped (confidence 109) [744C81A0] (AR v2)Track 7 accurately ripped (confidence 107) [5F781ABD] (AR v2)Track 8 accurately ripped (confidence 107) [DEA8C1C3] (AR v2)Track 9 accurately ripped (confidence 107) [7BA63C75] (AR v2)Track 10 accurately ripped (confidence 107) [D2C2B02C] (AR v2)Track 11 accurately ripped (confidence 105) [294B4FE4] (AR v2)
All tracks accurately ripped
End of status report
---- CUETools DB Plugin V2.1.6
[CTDB TOCID: sxB3CwClEj_uDSGEB4koQ2sXlPs-] foundSubmit result: sxB3CwClEj_uDSGEB4koQ2sXlPs- has been confirmedTrack | CTDB Status 1 | (171/177) Accurately ripped 2 | (174/177) Accurately ripped 3 | (174/177) Accurately ripped 4 | (174/177) Accurately ripped 5 | (172/177) Accurately ripped 6 | (172/177) Accurately ripped 7 | (172/177) Accurately ripped 8 | (171/177) Accurately ripped 9 | (172/177) Accurately ripped 10 | (172/177) Accurately ripped 11 | (171/177) Accurately ripped
==== Log checksum 75DBA5986C8AEE444F2C66AE6CE2541D3C90A1B05D4E1FB56083D09F98BD6FBC ====
-

.cue

REM GENRE BluesREM DATE 2015REM DISCID 7C087A0BREM COMMENT "ExactAudioCopy v1.0b6"PERFORMER "Steve Earle and the Dukes"TITLE "Terraplane"FILE "Steve Earle and the Dukes - Terraplane.flac" WAVE  TRACK 01 AUDIO    TITLE "Baby Baby Baby (Baby)"    PERFORMER "Steve Earle and the Dukes"    ISRC US27Q1563281    INDEX 01 00:00:00  TRACK 02 AUDIO    TITLE "You're the Best Lover That I Ever Had"    PERFORMER "Steve Earle and the Dukes"    ISRC US27Q1563282    INDEX 01 03:37:03  TRACK 03 AUDIO    TITLE "The Tennessee Kid"    PERFORMER "Steve Earle and the Dukes"    ISRC US27Q1563283    INDEX 01 07:44:26  TRACK 04 AUDIO    TITLE "Ain't Nobody's Daddy Now"    PERFORMER "Steve Earle and the Dukes"    ISRC US27Q1563284    INDEX 01 11:49:54  TRACK 05 AUDIO    TITLE "Better off Alone"    PERFORMER "Steve Earle and the Dukes"    ISRC US27Q1563285    INDEX 01 14:18:61  TRACK 06 AUDIO    TITLE "The Usual Time"    PERFORMER "Steve Earle and the Dukes"    ISRC US27Q1563286    INDEX 01 18:45:48  TRACK 07 AUDIO    TITLE "Go-Go Boots Are Back"    PERFORMER "Steve Earle and the Dukes"    ISRC US27Q1563288    INDEX 01 21:44:73  TRACK 08 AUDIO    TITLE "Acquainted With the Wind"    PERFORMER "Steve Earle and the Dukes"    ISRC US27Q1532811    INDEX 01 25:18:14  TRACK 09 AUDIO    TITLE "Baby's Just As Mean As Me"    PERFORMER "Steve Earle and the Dukes"    ISRC US27Q1563289    INDEX 01 27:38:34  TRACK 10 AUDIO    TITLE "Gamblin' Blues"    PERFORMER "Steve Earle and the Dukes"    ISRC US27Q1532810    INDEX 01 30:13:66  TRACK 11 AUDIO    TITLE "King of the Blues"    PERFORMER "Steve Earle and the Dukes"    ISRC US27Q1563287    INDEX 01 32:18:41
-

matrix

-

To download the file disable ad blocking, and reload the page.

disable adblock How to disable ad blocking?

Download by magnet link 476 MB Download Torrent

Login using:

Similar topics



   
Current time is: 18-Nov 02:44 :: All times are UTC + 3