12 мелодий любви / Chacun sa vie
Страна: Франция
Жанр: мелодрама, комедия
Год выпуска: 2017
Продолжительность: 01:48:47-Перевод: Профессиональный (многоголосый закадровый) | iTunes
Субтитры: нет
Оригинальная аудиодорожка: нет-Режиссер: Клод Лелуш / Claude Lelouch-В ролях: Эрик Дюпон, Джонни Халлидей, Надя Фарес, Жан Дюжарден, Кристофер Ламберт, Антуан Дюлери, Марианн Деникур, Рюфюс, Шанталь Ладезу, Жерар Дармон и др.-Описание: В маленьком бургундском городке Бон царит джазовое настроение. Здесь проходит ежегодный фестиваль музыки, а 12 мужчин и 12 женщин, не замечая ничего вокруг, продолжают жить своей жизнью. Они влюбляются, флиртуют, назначают свидания, изменяют, разводятся и делают предложения руки и сердца. Судьи, аристократы, знаменитости и шарлатаны, проститутки, врачи, медсестры, артисты и полицейские — однажды этим малознакомым людям предстоит встретиться, чтобы решить судьбу одного из них.-Качество видео: WEB-DLRip
Формат видео: AVI
Видео: 720x304 (2.37:1), 25 fps, XviD build 73 ~1715 kbps avg, 0.31 bit/pixel
Аудио: 48 kHz, AC3 Dolby Digital, 2/0 (L,R) ch, ~192 kbps-Сэмпл-

MediaInfo


Format                      : AVI
Format/Info                 : Audio Video Interleave
File size                   : 1.46 GiB
Duration                    : 1 h 48 min
Overall bit rate            : 1 917 kb/s
Writing application         : VirtualDubMod 1.5.10.3 | www.virtualdub-fr.org || (build 2550/release)
Writing library             : VirtualDubMod build 2550/release
Video
ID                          : 0
Format                      : MPEG-4 Visual
Format profile              : Advanced Simple@L5
Format settings             : BVOP1 / Custom Matrix
Format settings, BVOP       : 1
Format settings, QPel       : No
Format settings, GMC        : No warppoints
Format settings, Matrix     : Custom
Codec ID                    : XVID
Codec ID/Hint               : XviD
Duration                    : 1 h 48 min
Bit rate                    : 1 715 kb/s
Width                       : 720 pixels
Height                      : 304 pixels
Display aspect ratio        : 2.35:1
Frame rate                  : 25.000 FPS
Color space                 : YUV
Chroma subsampling          : 4:2:0
Bit depth                   : 8 bits
Scan type                   : Progressive
Compression mode            : Lossy
Bits/(Pixel*Frame)          : 0.313
Stream size                 : 1.30 GiB (89%)
Writing library             : XviD 73
Audio
ID                          : 1
Format                      : AC-3
Format/Info                 : Audio Coding 3
Codec ID                    : 2000
Duration                    : 1 h 48 min
Bit rate mode               : Constant
Bit rate                    : 192 kb/s
Channel(s)                  : 2 channels
Channel positions           : Front: L R
Sampling rate               : 48.0 kHz
Frame rate                  : 31.250 FPS (1536 SPF)
Bit depth                   : 16 bits
Compression mode            : Lossy
Stream size                 : 149 MiB (10%)
Alignment                   : Split accross interleaves
Interleave, duration        : 40  ms (1.00 video frame)
Interleave, preload duratio : 500  ms
Service kind                : Complete Main

Скриншоты

To download the file disable ad blocking, and reload the page.

disable adblock How to disable ad blocking?

Download by magnet link 1.46 GB Download Torrent

Login using:

Similar topics

12 мелодий любви / Chacun sa vie (2017) WEB-DL 1080p | iTunes
 3.54 GB   8 | 1   01-Mar-18 18:30   0
Gulag Tunes - Мелодии Любви (2007) FLAC
 286 MB   0 | 0   15-Feb-18 14:30   0


   
Current time is: 15-Nov 13:22 :: All times are UTC + 3