Karen Young - Hot Shot: The Best of Karen Young
Жанр: Disco
Носитель: CD
Страна-производитель диска (релиза): США
Год издания: 1994
Издатель (лейбл): Sunshine Entertainment/Hot Productions
Номер по каталогу: HTCD 45-2
Аудиокодек: FLAC (*.flac)
Тип рипа: tracks+.cue
Битрейт аудио: lossless
Продолжительность: 1:17:11
Источник (релизер): redacted
Наличие сканов в содержимом раздачи: да
Треклист:
01. Hot Shot (8:38)
02. Bring on the Boys (4:17)
03. Baby You Ain't Nothin' (4:49)
04. Dynamite (4:32)
05. Dee Tour (3:51)
06. No U-Turn (3:23)
07. Expressway to Your Heart (3:46)
08. Don't Say Goodbye (2:33)
09. Hot for You (3:33)
10. You Don't Know What You Got (5:59)
11. A Change Is Gonna Come (4:52)
12. Ain't Gettin' Better (5:24)
13. Desperately (4:14)
14. One Sure Way (2:48)
15. Don't Bite the Hand That Feeds You (4:00)
16. If This Ain't Love (3:48)
17. Love Me Like a Man (3:40)
18. God Bless America (3:04)

Лог создания рипа

Exact Audio Copy V0.99 prebeta 5 from 4. May 2009
EAC extraction logfile from 12. June 2010, 18:23
Karen Young / The Best Of Karen Young
Used drive : TSSTcorpCDDVDW SH-S223F Adapter: 3 ID: 0
Read mode : SecureUtilize accurate stream : YesDefeat audio cache : YesMake use of C2 pointers : No
Read offset correction : 6Overread into Lead-In and Lead-Out : NoFill up missing offset samples with silence : YesDelete leading and trailing silent blocks : NoNull samples used in CRC calculations : YesUsed interface : Native Win32 interface for Win NT & 2000Gap handling : Appended to previous track
Used output format : User Defined EncoderSelected bitrate : 192 kBit/sQuality : HighAdd ID3 tag : NoCommand line compressor : D:\Program Files\Exact Audio Copy\flac-1.1.4-win\bin\flac.exeAdditional command line options : -V -8 -T "artist=%a" -T "title=%t" -T "album=%g" -T "date=%y" -T "tracknumber=%n" -T "genre=%m" %s
TOC of the extracted CD
Track | Start | Length | Start sector | End sector --------------------------------------------------------- 1 | 0:00.00 | 8:38.05 | 0 | 38854 2 | 8:38.05 | 4:16.62 | 38855 | 58116 3 | 12:54.67 | 4:48.40 | 58117 | 79756 4 | 17:43.32 | 4:32.13 | 79757 | 100169 5 | 22:15.45 | 3:50.67 | 100170 | 117486 6 | 26:06.37 | 3:23.33 | 117487 | 132744 7 | 29:29.70 | 3:46.20 | 132745 | 149714 8 | 33:16.15 | 2:32.50 | 149715 | 161164 9 | 35:48.65 | 3:33.12 | 161165 | 177151 10 | 39:22.02 | 5:59.18 | 177152 | 204094 11 | 45:21.20 | 4:52.25 | 204095 | 226019 12 | 50:13.45 | 5:24.05 | 226020 | 250324 13 | 55:37.50 | 4:14.30 | 250325 | 269404 14 | 59:52.05 | 2:47.65 | 269405 | 281994 15 | 62:39.70 | 3:59.47 | 281995 | 299966 16 | 66:39.42 | 3:48.08 | 299967 | 317074 17 | 70:27.50 | 3:40.12 | 317075 | 333586 18 | 74:07.62 | 3:04.23 | 333587 | 347409
Track 1
Filename E:\EAC\Karen Young - The Best Of Karen Young Hot Shot - CD - 1995 - FLAC\01. Karen Young - Hot Shot.wav
Pre-gap length 0:00:02.00
Peak level 99.8 % Track quality 100.0 % Test CRC A7F055A4 Copy CRC A7F055A4 Cannot be verified as accurate (confidence 1) [FA0BE0E2], AccurateRip returned [9F25BEB2] Copy OK
Track 2
Filename E:\EAC\Karen Young - The Best Of Karen Young Hot Shot - CD - 1995 - FLAC\02. Karen Young - Bring on the Boys.wav
Peak level 94.0 % Track quality 100.0 % Test CRC 1E5B4750 Copy CRC 1E5B4750 Cannot be verified as accurate (confidence 1) [01AC4353], AccurateRip returned [184DEC7D] Copy OK
Track 3
Filename E:\EAC\Karen Young - The Best Of Karen Young Hot Shot - CD - 1995 - FLAC\03. Karen Young - Baby You Ain't Nothin'.wav
Peak level 93.6 % Track quality 99.9 % Test CRC BCB76D6B Copy CRC BCB76D6B Cannot be verified as accurate (confidence 1) [8049CC2F], AccurateRip returned [81254A72] Copy OK
Track 4
Filename E:\EAC\Karen Young - The Best Of Karen Young Hot Shot - CD - 1995 - FLAC\04. Karen Young - Dynamite.wav
Peak level 98.8 % Track quality 100.0 % Test CRC E71174D9 Copy CRC E71174D9 Cannot be verified as accurate (confidence 1) [8E668B89], AccurateRip returned [BE01E7B2] Copy OK
Track 5
Filename E:\EAC\Karen Young - The Best Of Karen Young Hot Shot - CD - 1995 - FLAC\05. Karen Young - Dee Tour.wav
Peak level 99.9 % Track quality 100.0 % Test CRC 188B6977 Copy CRC 188B6977 Cannot be verified as accurate (confidence 1) [5FFB0D9B], AccurateRip returned [A714AF2A] Copy OK
Track 6
Filename E:\EAC\Karen Young - The Best Of Karen Young Hot Shot - CD - 1995 - FLAC\06. Karen Young - No U-Turn.wav
Peak level 98.7 % Track quality 100.0 % Test CRC 200788FB Copy CRC 200788FB Cannot be verified as accurate (confidence 1) [35D8ECFC], AccurateRip returned [D46EA1D7] Copy OK
Track 7
Filename E:\EAC\Karen Young - The Best Of Karen Young Hot Shot - CD - 1995 - FLAC\07. Karen Young - Expressway to Your Heart.wav
Peak level 98.7 % Track quality 100.0 % Test CRC 781CFC21 Copy CRC 781CFC21 Cannot be verified as accurate (confidence 1) [977CED66], AccurateRip returned [234CEF2E] Copy OK
Track 8
Filename E:\EAC\Karen Young - The Best Of Karen Young Hot Shot - CD - 1995 - FLAC\08. Karen Young - Don't Say Goodbye.wav
Peak level 99.9 % Track quality 100.0 % Test CRC 8C4CBA6C Copy CRC 8C4CBA6C Cannot be verified as accurate (confidence 1) [6FA6CFF4], AccurateRip returned [06128DDC] Copy OK
Track 9
Filename E:\EAC\Karen Young - The Best Of Karen Young Hot Shot - CD - 1995 - FLAC\09. Karen Young - Hot For You.wav
Peak level 99.2 % Track quality 99.9 % Test CRC 70FDCACA Copy CRC 70FDCACA Cannot be verified as accurate (confidence 1) [7AAF20EA], AccurateRip returned [73F8868F] Copy OK
Track 10
Filename E:\EAC\Karen Young - The Best Of Karen Young Hot Shot - CD - 1995 - FLAC\10. Karen Young - You Don't Know What You Got.wav
Peak level 99.3 % Track quality 100.0 % Test CRC 6A4C33D3 Copy CRC 6A4C33D3 Cannot be verified as accurate (confidence 1) [998604BB], AccurateRip returned [75636BBF] Copy OK
Track 11
Filename E:\EAC\Karen Young - The Best Of Karen Young Hot Shot - CD - 1995 - FLAC\11. Karen Young - A Change Is Gonna Come.wav
Peak level 99.9 % Track quality 100.0 % Test CRC B06985C2 Copy CRC B06985C2 Cannot be verified as accurate (confidence 1) [5D6EB765], AccurateRip returned [B7C8DDFB] Copy OK
Track 12
Filename E:\EAC\Karen Young - The Best Of Karen Young Hot Shot - CD - 1995 - FLAC\12. Karen Young - Ain't Gettin' Better.wav
Peak level 99.4 % Track quality 99.9 % Test CRC A7578D71 Copy CRC A7578D71 Cannot be verified as accurate (confidence 1) [1F3D2F47], AccurateRip returned [5084B340] Copy OK
Track 13
Filename E:\EAC\Karen Young - The Best Of Karen Young Hot Shot - CD - 1995 - FLAC\13. Karen Young - Desperately.wav
Peak level 99.9 % Track quality 100.0 % Test CRC D290D520 Copy CRC D290D520 Cannot be verified as accurate (confidence 1) [4CD70EC0], AccurateRip returned [47CB472C] Copy OK
Track 14
Filename E:\EAC\Karen Young - The Best Of Karen Young Hot Shot - CD - 1995 - FLAC\14. Karen Young - One Sure Way.wav
Peak level 99.6 % Track quality 100.0 % Test CRC 15DD1540 Copy CRC 15DD1540 Cannot be verified as accurate (confidence 1) [2C9DEFEE], AccurateRip returned [959391A3] Copy OK
Track 15
Filename E:\EAC\Karen Young - The Best Of Karen Young Hot Shot - CD - 1995 - FLAC\15. Karen Young - Don't Bite the Hand That Feeds You.wav
Peak level 94.3 % Track quality 100.0 % Test CRC E49742A4 Copy CRC E49742A4 Cannot be verified as accurate (confidence 1) [B8F7DAEA], AccurateRip returned [FA25D687] Copy OK
Track 16
Filename E:\EAC\Karen Young - The Best Of Karen Young Hot Shot - CD - 1995 - FLAC\16. Karen Young - If This Ain't Love.wav
Peak level 95.4 % Track quality 99.9 % Test CRC F94C4251 Copy CRC F94C4251 Cannot be verified as accurate (confidence 1) [01CC1669], AccurateRip returned [9C50373F] Copy OK
Track 17
Filename E:\EAC\Karen Young - The Best Of Karen Young Hot Shot - CD - 1995 - FLAC\17. Karen Young - Love Me Like a Man.wav
Peak level 99.1 % Track quality 99.9 % Test CRC 4213A807 Copy CRC 4213A807 Cannot be verified as accurate (confidence 1) [F47FBEB3], AccurateRip returned [820AD3EA] Copy OK
Track 18
Filename E:\EAC\Karen Young - The Best Of Karen Young Hot Shot - CD - 1995 - FLAC\18. Karen Young - God Bless America.wav
Peak level 96.1 % Track quality 99.9 % Test CRC F42E6F78 Copy CRC F42E6F78 Cannot be verified as accurate (confidence 1) [BB6FAFF0], AccurateRip returned [73FEA850] Copy OK
No tracks could be verified as accurateYou may have a different pressing from the one(s) in the database
No errors occurred
End of status report

Содержание индексной карты (.CUE)

REM GENRE DiscoREM DATE 1994REM DISCID 08121812REM COMMENT "ExactAudioCopy v0.99pb5"PERFORMER "Karen Young"TITLE "Hot Shot: The Best of Karen Young"FILE "01 - Hot Shot.wav" WAVE  TRACK 01 AUDIO    TITLE "Hot Shot"    PERFORMER "Karen Young"    INDEX 01 00:00:00FILE "02 - Bring on the Boys.wav" WAVE  TRACK 02 AUDIO    TITLE "Bring on the Boys"    PERFORMER "Karen Young"    INDEX 01 00:00:00FILE "03 - Baby You Ain't Nothin'.wav" WAVE  TRACK 03 AUDIO    TITLE "Baby You Ain't Nothin'"    PERFORMER "Karen Young"    INDEX 01 00:00:00FILE "04 - Dynamite.wav" WAVE  TRACK 04 AUDIO    TITLE "Dynamite"    PERFORMER "Karen Young"    INDEX 01 00:00:00FILE "05 - Dee Tour.wav" WAVE  TRACK 05 AUDIO    TITLE "Dee Tour"    PERFORMER "Karen Young"    INDEX 01 00:00:00FILE "06 - No U-Turn.wav" WAVE  TRACK 06 AUDIO    TITLE "No U-Turn"    PERFORMER "Karen Young"    INDEX 01 00:00:00FILE "07 - Expressway to Your Heart.wav" WAVE  TRACK 07 AUDIO    TITLE "Expressway to Your Heart"    PERFORMER "Karen Young"    INDEX 01 00:00:00FILE "08 - Don't Say Goodbye.wav" WAVE  TRACK 08 AUDIO    TITLE "Don't Say Goodbye"    PERFORMER "Karen Young"    INDEX 01 00:00:00FILE "09 - Hot for You.wav" WAVE  TRACK 09 AUDIO    TITLE "Hot for You"    PERFORMER "Karen Young"    INDEX 01 00:00:00FILE "10 - You Don't Know What You Got.wav" WAVE  TRACK 10 AUDIO    TITLE "You Don't Know What You Got"    PERFORMER "Karen Young"    INDEX 01 00:00:00FILE "11 - A Change Is Gonna Come.wav" WAVE  TRACK 11 AUDIO    TITLE "A Change Is Gonna Come"    PERFORMER "Karen Young"    INDEX 01 00:00:00FILE "12 - Ain't Gettin' Better.wav" WAVE  TRACK 12 AUDIO    TITLE "Ain't Gettin' Better"    PERFORMER "Karen Young"    INDEX 01 00:00:00FILE "13 - Desperately.wav" WAVE  TRACK 13 AUDIO    TITLE "Desperately"    PERFORMER "Karen Young"    INDEX 01 00:00:00FILE "14 - One Sure Way.wav" WAVE  TRACK 14 AUDIO    TITLE "One Sure Way"    PERFORMER "Karen Young"    INDEX 01 00:00:00FILE "15 - Don't Bite the Hand That Feeds You.wav" WAVE  TRACK 15 AUDIO    TITLE "Don't Bite the Hand That Feeds You"    PERFORMER "Karen Young"    INDEX 01 00:00:00FILE "16 - If This Ain't Love.wav" WAVE  TRACK 16 AUDIO    TITLE "If This Ain't Love"    PERFORMER "Karen Young"    INDEX 01 00:00:00FILE "17 - Love Me Like a Man.wav" WAVE  TRACK 17 AUDIO    TITLE "Love Me Like a Man"    PERFORMER "Karen Young"    INDEX 01 00:00:00FILE "18 - God Bless America.wav" WAVE  TRACK 18 AUDIO    TITLE "God Bless America"    PERFORMER "Karen Young"    INDEX 01 00:00:00

Отчет CUETools

[CUETools log; Date: 01.03.2018 2:20:51; Version: 2.1.5][CTDB TOCID: n..IowJjCuOBVrvJw9X1iBil6jU-] found.Track | CTDB Status  1   | (2/2) Accurately ripped  2   | (2/2) Accurately ripped  3   | (2/2) Accurately ripped  4   | (2/2) Accurately ripped  5   | (2/2) Accurately ripped  6   | (2/2) Accurately ripped  7   | (2/2) Accurately ripped  8   | (2/2) Accurately ripped  9   | (2/2) Accurately ripped 10   | (2/2) Accurately ripped 11   | (2/2) Accurately ripped 12   | (2/2) Accurately ripped 13   | (2/2) Accurately ripped 14   | (2/2) Accurately ripped 15   | (2/2) Accurately ripped 16   | (2/2) Accurately ripped 17   | (2/2) Accurately ripped 18   | (2/2) Accurately ripped[AccurateRip ID: 003617d2-02bff2fa-08121812] found.Track   [  CRC   |   V2   ] Status 01     [fa0be0e2|12f9640d] (1+0/2) Accurately ripped 02     [01ac4353|81395415] (0+0/1) No match 03     [8049cc2f|9e17163a] (0+0/1) No match 04     [8e668b89|71393690] (1+0/2) Accurately ripped 05     [5ffb0d9b|c8b30fa3] (0+0/1) No match 06     [35d8ecfc|302c3d0e] (0+0/1) No match 07     [977ced66|e3336f40] (0+0/1) No match 08     [6fa6cff4|3d8e1e6f] (0+0/1) No match 09     [7aaf20ea|835efa03] (0+0/1) No match 10     [998604bb|4b314975] (1+0/2) Accurately ripped 11     [5d6eb765|760bdede] (0+0/1) No match 12     [1f3d2f47|9c6c6988] (1+0/2) Accurately ripped 13     [4cd70ec0|f1639cfb] (0+0/1) No match 14     [2c9defee|189531b8] (0+0/1) No match 15     [b8f7daea|471e034e] (0+0/1) No match 16     [01cc1669|5b803394] (0+0/1) No match 17     [f47fbeb3|069b5e49] (0+0/1) No match 18     [bb6faff0|b453b171] (0+0/1) No matchOffsetted by -96: 01     [43e82ca2] (0/2) No match 02     [87b26a13] (0/1) No match (V2 was not tested) 03     [def9dc0f] (0/1) No match (V2 was not tested) 04     [86567189] (0/2) No match 05     [17f76b1b] (0/1) No match (V2 was not tested) 06     [fbbbbdcc] (0/1) No match (V2 was not tested) 07     [8e41c056] (0/1) No match (V2 was not tested) 08     [a60e75b4] (0/1) No match (V2 was not tested) 09     [5d817dca] (0/1) No match (V2 was not tested) 10     [18955f7b] (0/2) No match 11     [8ad03b85] (0/1) No match (V2 was not tested) 12     [7fed0447] (0/2) No match 13     [40013800] (0/1) No match (V2 was not tested) 14     [c3d5a6ce] (0/1) No match (V2 was not tested) 15     [1e0c8f2a] (0/1) No match (V2 was not tested) 16     [ff069bb9] (0/1) No match (V2 was not tested) 17     [fab25a63] (0/1) No match (V2 was not tested) 18     [73fea850] (1/1) Accurately ripped
Track Peak [ CRC32 ] [W/O NULL] [ LOG ] -- 99,9 [1393896A] [B69B6BB6] 01 99,8 [A7F055A4] [27383DD3] CRC32 02 94,0 [1E5B4750] [EB13FF20] CRC32 03 93,6 [BCB76D6B] [109ECC0C] CRC32 04 98,8 [E71174D9] [2B3024DE] CRC32 05 99,9 [188B6977] [19C5BEF7] CRC32 06 98,7 [200788FB] [6A7289C1] CRC32 07 98,7 [781CFC21] [357788EE] CRC32 08 99,9 [8C4CBA6C] [D7820A71] CRC32 09 99,2 [70FDCACA] [05C0298D] CRC32 10 99,3 [6A4C33D3] [2B9DAE7C] CRC32 11 99,9 [B06985C2] [A1E0D522] CRC32 12 99,4 [A7578D71] [01675D13] CRC32 13 99,9 [D290D520] [6F93D724] CRC32 14 99,6 [15DD1540] [B50874D2] CRC32 15 94,3 [E49742A4] [7207AAB7] CRC32 16 95,4 [F94C4251] [62E2B167] CRC32 17 99,1 [4213A807] [6E350F33] CRC32 18 96,1 [F42E6F78] [4FB4E4E4] CRC32

AllMusic Review by Justin Kantor

Best known for her 1978 international dancefloor hit "Hot Shot," Philadelphian Young initially debuted in 1969 with a U.K. hit, "Nobody's Child." The disco craze allowed her to resurface after a long hiatus, and she went on to record a number of disco and rock-oriented singles until the mid-'80s, shortly before her untimely death. This comprehensive collection covers her recordings for West End, Atlantic, Sunshine, Ariola, and Boardwalk. Over 77 minutes long, the content spans surefire disco ("Hot Shot" and the saucy "Baby You Ain't Nothin'"), bluesy ballads (a cover of Sam Cooke's "A Change Is Gonna Come"), AOR (the somewhat fluffy "One Sure Way"), and pop/rock (the Latin-tinged "Love Me Like a Man"). The most consistent numbers are the dance ones, benefiting from Young's peppy delivery and Walter Kahn's clever production. The more rock-style entries suffer from arrangements lacking in direction in most cases, though "Ain't Gettin' Better" is notable for its meshing of a bright, R&B horn arrangement and rock guitars. However, Young's enthusiastic improv and heartfelt style are the strongest aspects throughout.

To download the file disable ad blocking, and reload the page.

disable adblock How to disable ad blocking?

Download by magnet link 467 MB Download Torrent

Login using:

Similar topics



   
Current time is: 13-Nov 03:29 :: All times are UTC + 3