Best Disco Vol. 8
Жанр: italo-disco
Носитель: CD
Страна-производитель диска (релиза): Japan
Год издания: 1990
Издатель (лейбл): Victor
Страна исполнителя (группы): Italy
Аудиокодек: FLAC (*.flac)
Тип рипа: image+.cue
Битрейт аудио: lossless
Продолжительность: 00:57:08
Источник (релизер): my rip
Наличие сканов в содержимом раздачи: нет
Треклист:
1. Sinitta - Hitchin' A Ride (Extended) 4:20
2. Sophie - Face To Face (Extended) 6:09
3. Finzy Kontini - In The Name Of Love (Mix Version) 5:31
4. Jerome Stocks - Relight My Fire (Club Mix) 6:53
5. Alexia Cooper - Boy (Extended Remix) 5:30
6. Lita Beck - It's All Right (Extended) 4:52
7. Sissy Brown - Do It (Extended) 5:50
8. Oscar - Japanese Joy (Extended) 6:49
9. Monnalisa - Give Your Love (Extended) 5:40
10. Savage - I Just Died In Your Arms (Extended) 5:39

Лог создания рипа

Exact Audio Copy V0.99 prebeta 5 from 4. May 2009
Отчёт EAC об извлечении, выполненном 19. февраля 2018, 0:26
Various / Best Disco vol.8
Дисковод: TEAC CD-W552G Adapter: 0 ID: 1
Режим чтения : ДостоверностьИспользование точного потока : ДаОтключение кэша аудио : ДаИспользование указателей C2 : Нет
Коррекция смещения при чтении : 6Способность читать области Lead-in и Lead-out : НетЗаполнение пропущенных сэмплов тишиной : ДаУдаление блоков с тишиной в начале и конце : НетПри вычислениях CRC использовались нулевые сэмплы : ДаИнтерфейс : Встроенный Win32-интерфейс для Win NT/2000
Выходной формат : Пользовательский кодировщикВыбранный битрейт : 768 kBit/sКачество : ВысокийДобавление ID3-тэга : НетУтилита сжатия : F:\Program\Exact Audio Copy\FLAC\FLAC.EXEДополнительные параметры : -6 -V -T "ARTIST=%a" -T "TITLE=%t" -T "ALBUM=%g" -T "DATE=%y" -T "TRACKNUMBER=%n" -T "GENRE=%m" -T "COMMENT=%e" %s -o %d
TOC извлечённого CD
Трек | Старт | Длительность | Начальный сектор | Конечный сектор --------------------------------------------------------------------- 1 | 0:00.37 | 4:20.20 | 37 | 19556 2 | 4:20.57 | 6:09.28 | 19557 | 47259 3 | 10:30.10 | 5:31.70 | 47260 | 72154 4 | 16:02.05 | 6:53.05 | 72155 | 103134 5 | 22:55.10 | 5:30.65 | 103135 | 127949 6 | 28:26.00 | 4:52.15 | 127950 | 149864 7 | 33:18.15 | 5:50.30 | 149865 | 176144 8 | 39:08.45 | 6:49.40 | 176145 | 206859 9 | 45:58.10 | 5:40.22 | 206860 | 232381 10 | 51:38.32 | 5:39.33 | 232382 | 257839
Характеристики диапазона извлечения и сообщения об ошибках
Выбранный диапазон
Имя файла C:\Documents and Settings\Admin\Рабочий стол\Best Disco vol.8\Various - Best Disco vol.8.wav
Пиковый уровень 100.0 % Качество диапазона 99.9 % CRC теста 086FF32D CRC копии 086FF32D Копирование... OK
Ошибок не произошло
Конец отчёта

To download the file disable ad blocking, and reload the page.

disable adblock How to disable ad blocking?

Download by magnet link 422 MB Download Torrent

Login using:

Similar topics

Dance Mission - Italo Disco Chapter 80ies (2018) MP3
 141 MB   16 | 1   01-Nov-18 22:30   2


   
Current time is: 13-Nov 03:09 :: All times are UTC + 3