Client Liaison / Client Liaison EP
Жанр: Electronic, Synthpop
Носитель: WEB
Год издания: 2014
Издатель (лейбл): Dot Dash
Страна исполнителя (группы): Australia & New Zealand
Аудиокодек: FLAC (*.flac)
Тип рипа: tracks
Битрейт аудио: lossless
Продолжительность: 26:30
Источник (релизер): bandcamp
Наличие сканов в содержимом раздачи: нет
Треклист:

01. End Of The Earth
02. Feed The Rhythm

Written & Produced by Harvey Miller AO & Monte Morgan

Содержание индексной карты (.CUE)

REM GENRE Electronic,SynthpopREM DATE 2014REM DISCID DOT032CDREM COMMENT "ExactAudioCopy v0.99pb5"PERFORMER "Client Liaison"TITLE "Client Liaison"FILE "01 - Client Liaison - End Of The Earth.flac" WAVE  TRACK 01 AUDIO    TITLE "End Of The Earth"    PERFORMER "Client Liaison"    INDEX 01 00:00:00FILE "02 - Client Liaison - Feed The Rhythm.flac" WAVE  TRACK 02 AUDIO    TITLE "Feed The Rhythm"    PERFORMER "Client Liaison"    INDEX 01 00:00:00FILE "03 - Client Liaison - Feeling.flac" WAVE  TRACK 03 AUDIO    TITLE "Feeling"    PERFORMER "Client Liaison"    INDEX 01 00:00:00FILE "04 - Client Liaison - Pretty Lovers.flac" WAVE  TRACK 04 AUDIO    TITLE "Pretty Lovers"    PERFORMER "Client Liaison"    INDEX 01 00:00:00FILE "05 - Client Liaison - Groove The Physical.flac" WAVE  TRACK 05 AUDIO    TITLE "Groove The Physical"    PERFORMER "Client Liaison"    INDEX 01 00:00:00FILE "06 - Client Liaison - Queen.flac" WAVE  TRACK 06 AUDIO    TITLE "Queen"    PERFORMER "Client Liaison"    INDEX 01 00:00:00

Лог проверки качества

AUDIOCHECKER v2.0 beta (build 457) - by Dester - opdester@freemail.hu~~~~~~~~~~~~~~~~~~~~~~~~~~~~~~~~~~-=== НЕ РЕДАКТИРУЙТЕ ЭТОТ ФАЙЛ! ===-
Путь: ...\Client Liaison - Client Liaison
1 -=- Client Liaison - End Of The Earth.flac -=- CDDA (100%)2 -=- Client Liaison - Feed The Rhythm.flac -=- CDDA (100%)3 -=- Client Liaison - Feeling.flac -=- CDDA (100%)4 -=- Client Liaison - Pretty Lovers.flac -=- CDDA (100%)5 -=- Client Liaison - Groove The Physical.flac -=- CDDA (100%)6 -=- Client Liaison - Queen.flac -=- CDDA (100%)
Сводка 100,00% CDDA
144044532

Скриншот спектра частот

Dynamic Range

foobar2000 1.1 / Замер динамического диапазона (DR) 1.1.1Дата отчёта:  2018-02-24 00:44:32
--------------------------------------------------------------------------------Анализ: Client Liaison / Client Liaison--------------------------------------------------------------------------------
DR Пики RMS Продолжительность трека--------------------------------------------------------------------------------DR7 -0.30 дБ -8.63 дБ 4:49 01-End Of The EarthDR8 0.00 дБ -9.24 дБ 4:40 02-Feed The RhythmDR5 -0.10 дБ -6.83 дБ 4:28 03-FeelingDR6 -0.10 дБ -7.44 дБ 4:03 04-Pretty LoversDR9 0.00 дБ -10.70 дБ 3:41 05-Groove The PhysicalDR8 0.00 дБ -9.98 дБ 4:49 06-Queen--------------------------------------------------------------------------------
Количество треков: 6Реальные значения DR: DR7
Частота: 44100 ГцКаналов: 2Разрядность: 16Битрейт: 1029 кбит/сКодек: FLAC================================================================================

Обратите внимание

Содержимое раздачи, предназначено только для персонального использования и в ознакомительных целях.
Все права на материалы принадлежат их владельцам.
После прослушивания,материал рекомендуется удалить с Вашего жесткого диска или иного носителя.


Куй самодельный, работает.Может быть кому-нибудь пригодится.
Доп. информация: Чумовая группа из Австралии.
Рекомендую к прослушиванию их альбом 2016 года - http://********.org/forum/viewtopic.php?t=5329753
★ Приятного прослушивания! ★

To download the file disable ad blocking, and reload the page.

disable adblock How to disable ad blocking?

Download by magnet link 188 MB Download Torrent

Login using:

Similar topics



   
Current time is: 15-Nov 14:03 :: All times are UTC + 3