Убить за лайк / Tragedy Girls
«Поставь лайк или дизлайк»
5.431 / 10 6.70 / 10
- Год выпуска: 2017
Страна: США
Жанр: Ужасы, комедия
Продолжительность: 01:38:12
Перевод: Дублированный (iTunes)
Оригинальная аудиодорожка: Нет
Cубтитры: Нет
Режиссёр: Тайлер МакИнтайр
Сценарий: Крис Ли Хилл, Тайлер МакИнтайр, Justin Olson
Продюсер: Армен Агаеян, Тара Энсли, Энтони Холт
Оператор: Павел Погожельский
Композитор: Расс Ховард III
Художник: Марс Фиэри, Дакота Келлер
Монтаж: Мартин Пенса
В ролях: Джош Хатчерсон, Брианна Хилдебранд, Кевин Дюран, Джек Куэйд, Никки Уилан, Александра Шипп, Крэйг Робинсон, Остин Абрамс, Розалинд Чао, Тимоти В. Мерфи
Сборы в России: $59 384
Мировая премьера: 12 марта 2017
Премьера (РФ): 2 ноября 2017, «Cinema Prestige»
Цифровой релиз: 05 января 2018, «Cinema Prestige»
Описание: Две подружки-старшеклассницы одержимы мечтой стать звездами социальных сетей. Но, как известно, хорошими делами прославиться нельзя. Поэтому они заводят блог «Кошмарные девчонки», в котором смачно комментируют трагедии и несчастные случаи, происходящие в их городке. Количество подписчиков растет, но для новых лайков требуются новые кровавые репортажи. Амбициозные девушки, ощущая острую нехватку материала, принимаются убивать всех, кто мешает им по жизни, совмещая «приятное» с «полезным»…-Качество исходника: WEB-DL 1080p (BlueBird)
Качество: WEB-DL
Тип: HD (1080p)
Контейнер: M4V
Видео: H.264, 1920x802, 2.40:1, 4 559 Kbps, 24.000 fps
Аудио 1: Русский/Дублированный (iTunes), AAC / 2.0 / 160 Kbps / 48.0 KHz
Аудио 2: Русский/Дублированный (iTunes), AC-3 / 5.1 / 384 Kbps / 48.0 KHz
-

iTunes Meta Tags

Sort Name: Tragedy Girls
XID: Apple:vendor_id:2017-978753
contentID: 1298321591
Copyright: © 2017 It's The Comeback Kids LLC
Screenwriters: Крис Ли Хилл, Тайлер МакИнтайр, Justin Olson
Producers: Армен Агаеян, Тара Энсли, Энтони Холт
Director: Тайлер МакИнтайр
Cast: Джош Хатчерсон, Брианна Хилдебранд, Кевин Дюран, Джек Куэйд, Никки Уилан, Александра Шипп, Крэйг Робинсон, Остин Абрамс, Розалинд Чао, Тимоти В. Мерфи
Studio: Gunpowder & Sky
Rating: 5
Long Description: Две подружки-старшеклассницы одержимы мечтой стать звездами социальных сетей. Но, как известно, хорошими делами прославиться нельзя. Поэтому они заводят блог "Кошмарные девчонки", в котором смачно комментируют трагедии и несчастные случаи, происходящие в их городке. Количество подписчиков растет, но для новых лайков требуются новые кровавые репортажи. Амбициозные девушки, ощущая острую нехватку материала, принимаются убивать всех, кто мешает им по жизни, совмещая "приятное» с "полезным"…
Description: Две подружки-старшеклассницы одержимы мечтой стать звездами социальных сетей. Но, как известно, хорошими делами прославиться нельзя. Поэтому они заводят блог "Кошмарные девчонки", в котором смачно комментируют трагедии и несчастные случаи, происходящие в их городке...
Release Date: 2017-03-12T08:00:00Z
Genre: Horror
Artist: Tyler MacIntyre
Name: Tragedy Girls

MediaInfo

General
Complete name : /Users/imac/HandBrake/Tragedy.Girls.WEB-DL.1080p.m4v
Format : MPEG-4
Codec ID : M4V
File size : 3.50 GiB
Duration : 1h 38mn
Overall bit rate mode : Variable
Overall bit rate : 5 106 Kbps
Movie name : Tragedy Girls
Performer : Tyler MacIntyre
Director : Тайлер МакИнтайр
Actor : Джош Хатчерсон / Брианна Хилдебранд / Кевин Дюран / Джек Куэйд / Никки Уилан / Александра Шипп / Крэйг Робинсон / Остин Абрамс / Розалинд Чао / Тимоти В. Мерфи
Screenplay by : Крис Ли Хилл / Тайлер МакИнтайр / Justin Olson
Producer : Армен Агаеян / Тара Энсли / Энтони Холт
Production studio : Gunpowder & Sky
Genre : Horror
ContentType : Short Film
Description : Две подружки-старшеклассницы одержимы мечтой стать звездами социальных сетей. Но, как известно, хорошими делами прославиться нельзя. Поэтому они заводят блог "Кошмарные девчонки", в котором смачно комментируют трагедии и несчастные случаи, происходящие в их городке...
Recorded date : UTC 2017-03-12 08:00:00
Encoded date : UTC 2018-01-11 10:02:49
Tagged date : UTC 2018-01-11 10:05:30
Copyright : © 2017 It\'s The Comeback Kids LLC
Cover : Yes
Rating : None
Title/Sort : Tragedy Girls
LongDescription : Две подружки-старшеклассницы одержимы мечтой стать звездами социальных сетей. Но, как известно, хорошими делами прославиться нельзя. Поэтому они заводят блог "Кошмарные девчонки", в котором смачно комментируют трагедии и несчастные случаи, происходящие в их городке. Количество подписчиков растет, но для новых лайков требуются новые кровавые репортажи. Амбициозные девушки, ощущая острую нехватку материала, принимаются убивать всех, кто мешает им по жизни, совмещая "приятное» с "полезным"…
AppleStoreCatalogID : 1298321591
Vendor : Apple:vendor_id:2017-978753
ContentRating : mpaa|R|400|
Video #1
ID : 1
Format : AVC
Format/Info : Advanced Video Codec
Format profile : High@L4
Format settings, CABAC : Yes
Format settings, ReFrames : 5 frames
Codec ID : avc1
Codec ID/Info : Advanced Video Coding
Duration : 1h 38mn
Source duration : 1h 38mn
Bit rate : 4 559 Kbps
Width : 1 920 pixels
Height : 802 pixels
Display aspect ratio : 2.40:1
Frame rate mode : Variable
Frame rate : 24.000 fps
Minimum frame rate : 23.810 fps
Maximum frame rate : 24.390 fps
Color space : YUV
Chroma subsampling : 4:2:0
Bit depth : 8 bits
Scan type : Progressive
Bits/(Pixel*Frame) : 0.123
Stream size : 3.13 GiB (89%)
Source stream size : 3.13 GiB (89%)
Title : Main Program
Language : English
Encoded date : UTC 2018-01-11 10:02:49
Tagged date : UTC 2018-01-11 10:02:55
Color range : Limited
Color primaries : BT.709
Transfer characteristics : BT.709
Matrix coefficients : BT.709
Video #2
ID : 7
Format : JPEG
Codec ID : jpeg
Duration : 1h 38mn
Bit rate mode : Variable
Bit rate : 784 bps
Width : 640 pixels
Height : 267 pixels
Display aspect ratio : 2.40:1
Frame rate mode : Variable
Frame rate : 0.003 fps
Minimum frame rate : 0.001 fps
Maximum frame rate : 0.004 fps
Color space : YUV
Chroma subsampling : 4:2:0
Bit depth : 8 bits
Compression mode : Lossy
Bits/(Pixel*Frame) : 1.529
Stream size : 510 KiB (0%)
Title : Chapter Images
Language : English
Encoded date : UTC 2018-01-11 10:04:50
Tagged date : UTC 2018-01-11 10:04:51
Audio #1
ID : 2
Format : AAC
Format/Info : Advanced Audio Codec
Format profile : LC
Codec ID : 40
Duration : 1h 38mn
Source duration : 1h 38mn
Bit rate mode : Variable
Bit rate : 156 Kbps
Maximum bit rate : 243 Kbps
Channel(s) : 2 channels
Channel positions : Front: L R
Sampling rate : 48.0 KHz
Compression mode : Lossy
Stream size : 109 MiB (3%)
Source stream size : 109 MiB (3%)
Title : Russian Stereo
Language : Russian
Encoded date : UTC 2018-01-11 10:02:49
Tagged date : UTC 2018-01-11 10:02:57
Audio #2
ID : 3
Format : AC-3
Format/Info : Audio Coding 3
Mode extension : CM (complete main)
Format settings, Endianness : Big
Codec ID : ac-3
Duration : 1h 38mn
Bit rate mode : Constant
Bit rate : 384 Kbps
Channel(s) : 6 channels
Channel positions : Front: L C R, Side: L R, LFE
Sampling rate : 48.0 KHz
Bit depth : 16 bits
Compression mode : Lossy
Stream size : 270 MiB (8%)
Title : Russian DD 5.1
Language : Russian
Encoded date : UTC 2018-01-11 10:02:49
Tagged date : UTC 2018-01-11 10:02:55
Menu #1
00:00:00.000 : 1
00:04:01.708 : 2
00:08:59.124 : 3
00:15:19.915 : 4
00:19:53.831 : 5
00:26:27.122 : 6
00:32:56.913 : 7
00:38:53.704 : 8
00:43:38.995 : 9
00:49:49.661 : 10
00:55:57.786 : 11
01:01:45.369 : 12
01:08:23.119 : 13
01:12:57.202 : 14
01:19:46.743 : 15
01:25:46.534 : 16
Menu #2
ID : 6
Codec ID : text
Duration : 1h 38mn
Language : English
Encoded date : UTC 2018-01-11 10:04:15
Tagged date : UTC 2018-01-11 10:04:15
00:00:00.000 : 1
00:04:01.708 : 2
00:08:59.124 : 3
00:15:19.915 : 4
00:19:53.831 : 5
00:26:27.122 : 6
00:32:56.913 : 7
00:38:53.704 : 8
00:43:38.995 : 9
00:49:49.661 : 10
00:55:57.786 : 11
01:01:45.369 : 12
01:08:23.119 : 13
01:12:57.202 : 14
01:19:46.743 : 15
01:25:46.534 : 16
Bit rate mode : VBR

Скриншоты

-

Релиз подготовлен для просмотра на Apple TV, iPad, iPhone, iPod Touch.
Для просмотра данного релиза на компьютере с ОС Windows рекомендуется использовать VLC media player

To download the file disable ad blocking, and reload the page.

disable adblock How to disable ad blocking?

Download by magnet link 3.5 GB Download Torrent

Login using:

Similar topics



   
Current time is: 15-Oct 21:53 :: All times are UTC ± 0