ЛЕГО Ниндзяго Фильм / The LEGO Ninjago Movie
«Открой в себе ниндзя»
6.239 / 10 6.00 / 10
- Год выпуска: 2017
Страна: США, Дания
Жанр: Мультфильм, боевик, комедия, приключения, семейный
Продолжительность: 01:41:26
Перевод: Дублированный (Лицензия)
Оригинальная аудиодорожка: Есть
Cубтитры: Русские форсированные, Русские, Английские
Режиссёр: Боб Логан
Сценарий: Боб Логан, Пол Фишер, Уильям Уилер
Продюсер: Уилл Аллегра, Фиона Чилтон, Марианн Гарджер
Оператор: Дэвид Скотт
Композитор: Марк Мазерсбо
Художник: Энни Бошан, Ким Тейлор, Саймон Уайтели
Монтаж: Дэвид Берроуз, Гаррет Элкинс, Райан Фолси
В ролях: Джеки Чан, Дэйв Франко, Фред Армисен, Кумэйл Нанджиани, Майкл Пенья, Эбби Джейкобсон, Зак Вудс, Дэвид Берроуз, Алекс Кауффман, Джастин Теру
Бюджет: $70 000 000
Сборы в США: $59 281 555
Сборы в мире: + $63 800 000 = $123 081 555
Сборы в России: $3 507 031
Мировая премьера: 20 сентября 2017
Премьера (РФ): 21 сентября 2017, «Каро-Премьер»
Цифровой релиз: 27 декабря 2017, «Warner Bros.»
Описание: Ниндзяго-сити призывает на свою защиту юного Ллойда, он же Зеленый ниндзя, и его друзей, тайных воинов и Великих мастеров ЛЕГО. Под предводительством кунг-фу мастера Ву, столь же умного, сколь и остроумного, они должны одолеть злобного диктатора Гармадона, Самого Злодейского Злодея, который оказывается отцом Ллойда. Роботы против роботов, сын против отца; эпическое столкновение проверит на прочность эту неистовую, но не самую дисциплинированную команду современных ниндзя, которые должны научиться усмирять свое самомнение, чтобы по полной проявить свои способности.-Качество исходника: Blu-Ray (BlueBird)
Качество: BDRip
Тип: HD (720p)
Контейнер: M4V
Видео: H.264, 1280x544, 2.35:1, 3 500 Kbps, 23.976 (24000/1001) fps
Аудио 1: Русский/Дублированный (Лицензия), AAC / 2.0 / 160 Kbps / 48.0 KHz
Аудио 2: Английский/Оригинальная дорожка , AAC / 2.0 / 160 Kbps / 48.0 KHz
Аудио 3: Русский/Дублированный (Лицензия), AC-3 / 5.1 / 448 Kbps / 48.0 KHz
Аудио 4: Английский/Оригинальная дорожка , AC-3 / 5.1 / 640 Kbps / 48.0 KHz
Субтитры 1: Русские форсированные
Субтитры 2: Русские полные
Субтитры 3: Английские полные
-

iTunes Meta Tags

Sort Name: LEGO Ninjago Movie
XID: Apple:vendor_id:2017-777684
contentID: 1280615181
Copyright: © 2017 Warner Bros. Entertainment Inc. and Ratpac-Dune Entertainment LLC. LEGO, the LEGO logo, the Minifigure and NINJAGO are copyrights and ™ of the LEGO Group. Copyright 2017 The LEGO Group.
Screenwriters: Боб Логан, Пол Фишер, Уильям Уилер
Producers: Уилл Аллегра, Фиона Чилтон, Марианн Гарджер
Director: Чарли Бин, Пол Фишер, Боб Логан
Cast: Джеки Чан, Дэйв Франко, Фред Армисен, Кумэйл Нанджиани, Майкл Пенья, Эбби Джейкобсон, Зак Вудс, Дэвид Берроуз, Алекс Кауффман, Джастин Теру
Studio: Warner Bros.
Rating Annotation: Rated PG for some mild action and rude humor.
Rating: 3
Long Description: Ниндзяго-сити призывает на свою защиту юного Ллойда, он же Зеленый ниндзя, и его друзей, тайных воинов и Великих мастеров ЛЕГО. Под предводительством кунг-фу мастера Ву, столь же умного, сколь и остроумного, они должны одолеть злобного диктатора Гармадона, Самого Злодейского Злодея, который оказывается отцом Ллойда. Роботы против роботов, сын против отца; эпическое столкновение проверит на прочность эту неистовую, но не самую дисциплинированную команду современных ниндзя, которые должны научиться усмирять свое самомнение, чтобы по полной проявить свои способности.
Description: Ниндзяго-сити призывает на свою защиту юного Ллойда, он же Зеленый ниндзя, и его друзей, тайных воинов и Великих мастеров ЛЕГО. Под предводительством кунг-фу мастера Ву, столь же умного, сколь и остроумного, они должны одолеть злобного диктатора Гармадона, Самого Злодейского Злодея, который оказывается отцом Ллойда...
Release Date: 2017-09-20T08:00:00Z
Genre: Kids & Family
Artist: Bob Logan, Charlie Bean & Paul Fisher
Name: The LEGO Ninjago Movie

MediaInfo

General
Complete name                            : /Users/imac/HandBrake/The.LEGO.Ninjago.Movie.720p.HD.m4v
Format                                   : MPEG-4
Codec ID                                 : M4V  (M4V /M4A /mp42/isom)
File size                                : 3.47 GiB
Duration                                 : 1h 41mn
Overall bit rate mode                    : Variable
Overall bit rate                         : 4 898 Kbps
Movie name                               : The LEGO Ninjago Movie
Performer                                : Bob Logan, Charlie Bean & Paul Fisher
Director                                 : Чарли Бин / Пол Фишер / Боб Логан
Actor                                    : Джеки Чан / Дэйв Франко / Фред Армисен / Кумэйл Нанджиани / Майкл Пенья / Эбби Джейкобсон / Зак Вудс / Дэвид Берроуз / Алекс Кауффман / Джастин Теру
Screenplay by                            : Боб Логан / Пол Фишер / Уильям Уилер
Producer                                 : Уилл Аллегра / Фиона Чилтон / Марианн Гарджер
Production studio                        : Warner Bros.
Genre                                    : Kids & Family
ContentType                              : Short Film
Description                              : Ниндзяго-сити призывает на свою защиту юного Ллойда, он же Зеленый ниндзя, и его друзей, тайных воинов и Великих мастеров ЛЕГО. Под предводительством кунг-фу мастера Ву, столь же умного, сколь и остроумного, они должны одолеть злобного диктатора Гармадона, Самого Злодейского Злодея, который оказывается отцом Ллойда...
Recorded date                            : UTC 2017-09-20 08:00:00
Encoded date                             : UTC 2018-02-01 14:20:20
Tagged date                              : UTC 2018-02-01 14:23:45
Copyright                                : © 2017 Warner Bros. Entertainment Inc. and Ratpac-Dune Entertainment LLC. LEGO, the LEGO logo, the Minifigure and NINJAGO are copyrights and ™ of the LEGO Group. Copyright 2017 The LEGO Group.
Cover                                    : Yes
Rating                                   : None
Title/Sort                               : LEGO Ninjago Movie
LongDescription                          : Ниндзяго-сити призывает на свою защиту юного Ллойда, он же Зеленый ниндзя, и его друзей, тайных воинов и Великих мастеров ЛЕГО. Под предводительством кунг-фу мастера Ву, столь же умного, сколь и остроумного, они должны одолеть злобного диктатора Гармадона, Самого Злодейского Злодея, который оказывается отцом Ллойда. Роботы против роботов, сын против отца; эпическое столкновение проверит на прочность эту неистовую, но не самую дисциплинированную команду современных ниндзя, которые должны научиться усмирять свое самомнение, чтобы по полной проявить свои способности.
HDVideo                                  : Yes
AppleStoreCatalogID                      : 1280615181
Vendor                                   : Apple:vendor_id:2017-777684
ContentRating                            : mpaa|PG|200|Rated PG for some mild action and rude humor.
Video #1
ID                                       : 1
Format                                   : AVC
Format/Info                              : Advanced Video Codec
Format profile                           : [email protected]
Format settings                          : 3 Ref Frames
Format settings, CABAC                   : No
Format settings, ReFrames                : 3 frames
Codec ID                                 : avc1
Codec ID/Info                            : Advanced Video Coding
Duration                                 : 1h 41mn
Source duration                          : 1h 41mn
Bit rate                                 : 3 500 Kbps
Width                                    : 1 280 pixels
Height                                   : 544 pixels
Display aspect ratio                     : 2.35:1
Frame rate mode                          : Variable
Frame rate                               : 23.976 (24000/1001) fps
Minimum frame rate                       : 23.974 fps
Maximum frame rate                       : 23.981 fps
Color space                              : YUV
Chroma subsampling                       : 4:2:0
Bit depth                                : 8 bits
Scan type                                : Progressive
Bits/(Pixel*Frame)                       : 0.210
Stream size                              : 2.47 GiB (71%)
Source stream size                       : 2.47 GiB (71%)
Title                                    : Main Program
Writing library                          : x264 core 148 r2708 86b7198
Encoding settings                        : cabac=0 / ref=3 / deblock=1:-3:-3 / analyse=0x3:0x113 / me=umh / subme=9 / psy=1 / psy_rd=1.00:0.15 / mixed_ref=1 / me_range=32 / chroma_me=1 / trellis=0 / 8x8dct=1 / cqm=0 / deadzone=21,11 / fast_pskip=0 / chroma_qp_offset=-2 / threads=17 / lookahead_threads=1 / sliced_threads=0 / nr=0 / decimate=0 / interlaced=0 / bluray_compat=0 / constrained_intra=0 / bframes=3 / b_pyramid=0 / b_adapt=2 / b_bias=0 / direct=1 / weightb=0 / open_gop=0 / weightp=0 / keyint=240 / keyint_min=24 / scenecut=40 / intra_refresh=0 / rc_lookahead=40 / rc=2pass / mbtree=1 / bitrate=3500 / ratetol=1.0 / qcomp=0.65 / qpmin=0 / qpmax=69 / qpstep=4 / cplxblur=20.0 / qblur=0.5 / vbv_maxrate=9500 / vbv_bufsize=9500 / nal_hrd=none / filler=0 / ip_ratio=1.40 / aq=1:1.10
Language                                 : English
Encoded date                             : UTC 2018-02-01 14:20:20
Tagged date                              : UTC 2018-02-01 14:20:28
Color range                              : Limited
Color primaries                          : BT.709
Transfer characteristics                 : BT.709
Matrix coefficients                      : BT.709
Menus                                    : 9,10
Video #2
ID                                       : 10
Format                                   : JPEG
Codec ID                                 : jpeg
Duration                                 : 1h 41mn
Bit rate mode                            : Variable
Bit rate                                 : 656 bps
Width                                    : 640 pixels
Height                                   : 272 pixels
Display aspect ratio                     : 2.35:1
Frame rate mode                          : Variable
Frame rate                               : 0.002 fps
Minimum frame rate                       : 0.001 fps
Maximum frame rate                       : 0.002 fps
Color space                              : YUV
Chroma subsampling                       : 4:2:0
Bit depth                                : 8 bits
Compression mode                         : Lossy
Bits/(Pixel*Frame)                       : 1.884
Stream size                              : 400 KiB (0%)
Title                                    : Chapter Images
Language                                 : English
Default                                  : No
Encoded date                             : UTC 2018-02-01 14:21:01
Tagged date                              : UTC 2018-02-01 14:21:01
Menu For                                 : 1
Audio #1
ID                                       : 2
Format                                   : AAC
Format/Info                              : Advanced Audio Codec
Format profile                           : LC
Codec ID                                 : mp4a-40-2
Duration                                 : 1h 41mn
Source duration                          : 1h 41mn
Bit rate mode                            : Variable
Bit rate                                 : 159 Kbps
Maximum bit rate                         : 239 Kbps
Channel(s)                               : 2 channels
Channel positions                        : Front: L R
Sampling rate                            : 48.0 KHz
Frame rate                               : 46.875 fps (1024 SPF)
Compression mode                         : Lossy
Stream size                              : 115 MiB (3%)
Source stream size                       : 115 MiB (3%)
Title                                    : Russian Stereo
Language                                 : Russian
Default                                  : Yes
Alternate group                          : 1
Encoded date                             : UTC 2018-02-01 14:20:21
Tagged date                              : UTC 2018-02-01 14:20:58
Fallback From                            : 4
Subtitles                                : 6,7
Audio #2
ID                                       : 3
Format                                   : AAC
Format/Info                              : Advanced Audio Codec
Format profile                           : LC
Codec ID                                 : mp4a-40-2
Duration                                 : 1h 41mn
Source duration                          : 1h 41mn
Bit rate mode                            : Variable
Bit rate                                 : 158 Kbps
Maximum bit rate                         : 231 Kbps
Channel(s)                               : 2 channels
Channel positions                        : Front: L R
Sampling rate                            : 48.0 KHz
Frame rate                               : 46.875 fps (1024 SPF)
Compression mode                         : Lossy
Stream size                              : 115 MiB (3%)
Source stream size                       : 115 MiB (3%)
Title                                    : English Stereo
Language                                 : English
Default                                  : No
Alternate group                          : 1
Encoded date                             : UTC 2018-02-01 14:20:21
Tagged date                              : UTC 2018-02-01 14:20:58
Audio #3
ID                                       : 4
Format                                   : AC-3
Format/Info                              : Audio Coding 3
Codec ID                                 : ac-3
Duration                                 : 1h 41mn
Bit rate mode                            : Constant
Bit rate                                 : 448 Kbps
Channel(s)                               : 6 channels
Channel positions                        : Front: L C R, Side: L R, LFE
Sampling rate                            : 48.0 KHz
Frame rate                               : 31.250 fps (1536 SPF)
Bit depth                                : 16 bits
Compression mode                         : Lossy
Stream size                              : 325 MiB (9%)
Title                                    : Russian DD 5.1
Language                                 : Russian
Service kind                             : Complete Main
Default                                  : Inherited From: 2
Alternate group                          : 1
Encoded date                             : UTC 2018-02-01 14:20:21
Tagged date                              : UTC 2018-02-01 14:20:58
Fallback To                              : 2
Subtitles                                : 6,7
Audio #4
ID                                       : 5
Format                                   : AC-3
Format/Info                              : Audio Coding 3
Codec ID                                 : ac-3
Duration                                 : 1h 41mn
Bit rate mode                            : Constant
Bit rate                                 : 640 Kbps
Channel(s)                               : 6 channels
Channel positions                        : Front: L C R, Side: L R, LFE
Sampling rate                            : 48.0 KHz
Frame rate                               : 31.250 fps (1536 SPF)
Bit depth                                : 16 bits
Compression mode                         : Lossy
Stream size                              : 464 MiB (13%)
Title                                    : English DD 5.1
Language                                 : English
Service kind                             : Complete Main
Default                                  : No
Alternate group                          : 1
Encoded date                             : UTC 2018-02-01 14:20:21
Tagged date                              : UTC 2018-02-01 14:20:58
Text #1
ID                                       : 6
Format                                   : Timed Text
Muxing mode                              : sbtl
Codec ID                                 : tx3g
Duration                                 : 1h 41mn
Bit rate mode                            : Variable
Bit rate                                 : 1 bps
Stream size                              : 910 Bytes (0%)
Title                                    : Russian forced
Language                                 : Russian
Default                                  : Yes
Forced                                   : Yes
Alternate group                          : 2
Encoded date                             : UTC 2018-02-01 14:20:21
Tagged date                              : UTC 2018-02-01 14:20:58
Subtitles For                            : 2,4
Full Alternative                         : 7
Text #2
ID                                       : 7
Format                                   : Timed Text
Muxing mode                              : sbtl
Codec ID                                 : tx3g
Duration                                 : 1h 41mn
Bit rate mode                            : Variable
Bit rate                                 : 139 bps
Stream size                              : 103 KiB (0%)
Title                                    : Russian full
Language                                 : Russian
Default                                  : No
Forced                                   : No
Alternate group                          : 2
Encoded date                             : UTC 2018-02-01 14:20:21
Tagged date                              : UTC 2018-02-01 14:20:58
Subtitles For                            : 2,4
Forced Alternative                       : 6
Text #3
ID                                       : 8
Format                                   : Timed Text
Muxing mode                              : sbtl
Codec ID                                 : tx3g
Duration                                 : 1h 41mn
Bit rate mode                            : Variable
Bit rate                                 : 92 bps
Stream size                              : 68.2 KiB (0%)
Title                                    : English full
Language                                 : English
Default                                  : No
Forced                                   : No
Alternate group                          : 2
Encoded date                             : UTC 2018-02-01 14:20:21
Tagged date                              : UTC 2018-02-01 14:20:55
Menu #1
00:00:00.000                             : Chapter 1
00:11:44.746                             : Chapter 2
00:23:32.453                             : Chapter 3
00:31:09.785                             : Chapter 4
00:40:53.368                             : Chapter 5
00:53:48.392                             : Chapter 6
01:03:05.532                             : Chapter 7
01:16:07.688                             : Chapter 8
01:25:13.609                             : Chapter 9
01:32:10.900                             : Chapter 10
Menu #2
ID                                       : 9
Codec ID                                 : text
Duration                                 : 1h 41mn
Language                                 : English
Encoded date                             : UTC 2018-02-01 14:20:58
Tagged date                              : UTC 2018-02-01 14:20:58
Menu For                                 : 1
00:00:00.000                             : Chapter 1
00:11:44.746                             : Chapter 2
00:23:32.453                             : Chapter 3
00:31:09.785                             : Chapter 4
00:40:53.368                             : Chapter 5
00:53:48.392                             : Chapter 6
01:03:05.532                             : Chapter 7
01:16:07.688                             : Chapter 8
01:25:13.609                             : Chapter 9
01:32:10.900                             : Chapter 10
Bit rate mode                            : VBR

x264 лог

x264 [info]: frame I:2097  Avg QP:15.17  size:109952
x264 [info]: frame P:59558 Avg QP:17.84  size: 32305
x264 [info]: frame B:84278 Avg QP:19.13  size:  5875
x264 [info]: consecutive B-frames:  7.7% 34.2% 35.3% 22.8%
x264 [info]: mb I  I16..4:  5.4% 55.0% 39.7%
x264 [info]: mb P  I16..4:  1.4%  6.4%  4.3%  P16..4: 48.5% 24.8% 10.0%  0.0%  0.0%    skip: 4.6%
x264 [info]: mb B  I16..4:  0.1%  0.6%  0.5%  B16..8: 36.6%  7.8%  1.2%  direct: 3.0%  skip:50.2%  L0:37.5% L1:53.6% BI: 8.9%
x264 [info]: 8x8 transform intra:53.0% inter:43.3%
x264 [info]: coded y,uvDC,uvAC intra: 85.4% 88.9% 72.8% inter: 21.7% 23.9% 14.9%
x264 [info]: i16 v,h,dc,p: 20% 17%  7% 56%
x264 [info]: i8 v,h,dc,ddl,ddr,vr,hd,vl,hu:  9% 11%  5% 11% 14% 13% 14% 11% 13%
x264 [info]: i4 v,h,dc,ddl,ddr,vr,hd,vl,hu: 10% 12%  4% 11% 16% 14% 14% 10% 10%
x264 [info]: i8c dc,h,v,p: 44% 23% 20% 14%
x264 [info]: ref P L0: 75.8% 14.3%  9.9%
x264 [info]: ref B L0: 82.0% 18.0%
x264 [info]: kb/s:3482.65

Скриншоты

-

Релиз подготовлен для просмотра на Apple TV, iPad, iPhone, iPod Touch.
Для просмотра данного релиза на компьютере с ОС Windows рекомендуется использовать VLC media player

If you like the topic, please click share to help develop our site.

To download the file disable ad blocking, and reload the page.

disable adblock How to disable ad blocking?

Download by magnet link 3.47 GB Download Torrent

Login using:

Similar topics



   
Current time is: 25-Jun 10:26 :: All times are UTC + 3