Название: Билли-Фингал
Оригинальное название: Shiner
Год выпуска: 2000
Выпущено: Великобритания, Geoff Reeve Films, Vision View Entertainment, Wisecroft Ltd.
Жанр: Драма, криминал
Режиссер: Джон Ирвин
В ролях: Майкл Кейн, Мартин Ландау, Фрэнсис Барбер, Фрэнк Харпер, Энди Серкис, Дэниэл Уэбб, Клэр Рашбрук, Мэттью Мэрсден, Кеннет Крэнэм, Дэвид Кеннеди, Питер Уайт, Никола Уолкер, Гари Льюис, Деррик Хэрмон, Жозефин Батлер, Малкольм Тирни, Хелен Грэйс, Джо Монтана, Уинстон Эллис, Сиобэн
О фильме:
Этого человека зовут Билли Симпсон, и сегодня — самый главный день в его жизни. Билли готовился к нему давно и поставил на карту все, что у него было, включая собственного сына. И наш герой, «крутой» лондонский мужик, которому дали не самую нежную кличку «Фингал», ни за что не позволит кому-нибудь испортить этот день... Но, к сожалению, жизнь — безжалостная и капризная дама: она склонна к самым неожиданным и ужасным сюрпризам. Эта скверная жизнь поступит с «Фингалом» жестоко и сделает так, что главному дню Билли будет суждено превратиться в дикий и кровавый кошмар…
Продолжительность: 01:39:37
Перевод: Профессиональный многоголосый, профессиональный двухголосый
Субтитры: Русские, английские, финские, испанские, португальские
Навигация по главам: Есть
Файл
Качество: WEB-DL 1080p
Видео: MPEG-4 AVC, 11,9 Мбит/сек, 1920x816, 23,976 кадра/сек
Аудио #1: AC3, 6 ch, 384 Кбит/сек | Русский, профессиональный (двухголосый закадровый)
Аудио #2: AC3, 6 ch, 384 Кбит/сек | Русский, профессиональный (многоголосый закадровый)
Аудио #3: EAC3, 6 ch, 640 Кбит/сек | Английский, оригинал

Скриншоты

Инфо-файл

Общее
Уникальный идентификатор : 190983906533166068651246158693876694905 (0x8FAE29963F127E23B707CCA2DEB0FF79)
Полное имя : Билли-Фингал.2000.WEB-DL.1080p.mkv
Формат : Matroska
Версия формата : Version 2
Размер файла : 9,44 Гбайт
Продолжительность : 1 ч. 39 м.
Режим общего битрейта : Переменный
Общий поток : 13,6 Мбит/сек
Дата кодирования : UTC 2018-04-26 01:49:33
Программа кодирования : mkvmerge v5.8.0 ('No Sleep / Pillow') built on Sep 2 2012 15:37:04
Библиотека кодирования : libebml v1.2.3 + libmatroska v1.3.0
Видео
Идентификатор : 1
Формат : AVC
Формат/Информация : Advanced Video Codec
Профиль формата : High@L4
Настройки формата : CABAC / 4 Ref Frames
Параметр CABAC формата : Да
Параметр RefFrames формата : 4 кадра
Идентификатор кодека : V_MPEG4/ISO/AVC
Продолжительность : 1 ч. 39 м.
Вид битрейта : Переменный
Битрейт : 11,9 Мбит/сек
Максимальный битрейт : 15,0 Мбит/сек
Ширина : 1920 пикселей
Высота : 816 пикселей
Соотношение сторон : 2,35:1
Режим частоты кадров : Постоянный
Частота кадров : 23,976 (24000/1001) кадра/сек
Цветовое пространство : YUV
Субдискретизация насыщенности : 4:2:0
Битовая глубина : 8 бит
Тип развёртки : Прогрессивная
Бит/(Пиксели*Кадры) : 0.317
Размер потока : 8,27 Гбайт (88%)
Библиотека кодирования : x264 core 148 r2623 d5b2374
Настройки программы : cabac=1 / ref=4 / deblock=1:-1:-1 / analyse=0x3:0x133 / me=umh / subme=9 / psy=1 / psy_rd=1.00:0.15 / mixed_ref=1 / me_range=24 / chroma_me=1 / trellis=2 / 8x8dct=1 / cqm=0 / deadzone=21,11 / fast_pskip=1 / chroma_qp_offset=-3 / threads=25 / lookahead_threads=4 / sliced_threads=0 / nr=150 / decimate=1 / interlaced=0 / bluray_compat=0 / constrained_intra=0 / bframes=8 / b_pyramid=2 / b_adapt=2 / b_bias=0 / direct=3 / weightb=1 / open_gop=0 / weightp=2 / keyint=120 / keyint_min=61 / scenecut=0 / intra_refresh=0 / rc_lookahead=120 / rc=crf / mbtree=1 / crf=18.0 / qcomp=0.60 / qpmin=0 / qpmax=69 / qpstep=4 / vbv_maxrate=15000 / vbv_bufsize=31250 / crf_max=0.0 / nal_hrd=vbr / filler=0 / ip_ratio=1.40 / aq=3:1.00
Язык : English
Default : Да
Forced : Нет
Цветовой диапазон : Limited
Основные цвета : BT.709
Характеристики трансфера : BT.709
Коэффициенты матрицы : BT.709
Аудио #1
Идентификатор : 2
Формат : AC-3
Формат/Информация : Audio Coding 3
Идентификатор кодека : A_AC3
Продолжительность : 1 ч. 39 м.
Вид битрейта : Постоянный
Битрейт : 384 Кбит/сек
Каналы : 6 каналов
Расположение каналов : Front: L C R, Side: L R, LFE
Частота : 48,0 КГц
Частота кадров : 31,250 кадров/сек (1536 SPF)
Битовая глубина : 16 бит
Метод сжатия : С потерями
Размер потока : 274 Мбайт (3%)
Заголовок : DVO
Язык : Russian
По умолчанию : Да
Принудительно : Нет
Аудио #2
Идентификатор : 3
Формат : AC-3
Формат/Информация : Audio Coding 3
Идентификатор кодека : A_AC3
Продолжительность : 1 ч. 39 м.
Вид битрейта : Постоянный
Битрейт : 384 Кбит/сек
Каналы : 6 каналов
Расположение каналов : Front: L C R, Side: L R, LFE
Частота : 48,0 КГц
Частота кадров : 31,250 кадров/сек (1536 SPF)
Битовая глубина : 16 бит
Метод сжатия : С потерями
Размер потока : 274 Мбайт (3%)
Заголовок : MVO
Язык : Russian
По умолчанию : Нет
Принудительно : Нет
Аудио #3
Идентификатор : 4
Формат : E-AC-3
Формат/Информация : Enhanced Audio Coding 3
Идентификатор кодека : A_EAC3
Продолжительность : 1 ч. 39 м.
Вид битрейта : Постоянный
Битрейт : 640 Кбит/сек
Каналы : 6 каналов
Расположение каналов : Front: L C R, Side: L R, LFE
Частота : 48,0 КГц
Частота кадров : 187,500 кадров/сек (256 SPF)
Метод сжатия : С потерями
Размер потока : 456 Мбайт (5%)
Заголовок : Original
Язык : English
По умолчанию : Нет
Принудительно : Нет
Текст #1
Идентификатор : 5
Формат : UTF-8
Идентификатор кодека : S_TEXT/UTF8
Идентификатор кодека/Информация : UTF-8 Plain Text
Язык : Russian
По умолчанию : Нет
Принудительно : Нет
Текст #2
Идентификатор : 6
Формат : UTF-8
Идентификатор кодека : S_TEXT/UTF8
Идентификатор кодека/Информация : UTF-8 Plain Text
Язык : English
По умолчанию : Нет
Принудительно : Нет
Текст #3
Идентификатор : 7
Формат : UTF-8
Идентификатор кодека : S_TEXT/UTF8
Идентификатор кодека/Информация : UTF-8 Plain Text
Заголовок : SDH
Язык : English
По умолчанию : Нет
Принудительно : Нет
Текст #4
Идентификатор : 8
Формат : UTF-8
Идентификатор кодека : S_TEXT/UTF8
Идентификатор кодека/Информация : UTF-8 Plain Text
Язык : Finnish
По умолчанию : Нет
Принудительно : Нет
Текст #5
Идентификатор : 9
Формат : UTF-8
Идентификатор кодека : S_TEXT/UTF8
Идентификатор кодека/Информация : UTF-8 Plain Text
Язык : Spanish
По умолчанию : Нет
Принудительно : Нет
Текст #6
Идентификатор : 10
Формат : UTF-8
Идентификатор кодека : S_TEXT/UTF8
Идентификатор кодека/Информация : UTF-8 Plain Text
Язык : Portuguese
По умолчанию : Нет
Принудительно : Нет
Меню
00:00:00.000 : en:Chapter 01
00:06:16.102 : en:Chapter 02
00:11:24.452 : en:Chapter 03
00:17:25.521 : en:Chapter 04
00:24:04.211 : en:Chapter 05
00:33:10.381 : en:Chapter 06
00:39:55.286 : en:Chapter 07
00:49:45.834 : en:Chapter 08
00:54:37.793 : en:Chapter 09
01:00:54.836 : en:Chapter 10
01:07:39.490 : en:Chapter 11
01:12:35.619 : en:Chapter 12
01:20:39.645 : en:Chapter 13
01:24:29.040 : en:Chapter 14
01:28:28.029 : en:Chapter 15
01:36:41.856 : en:Chapter 16

Дополнительная информация

• Исходник видео WEB-DL Amazon.
Сборка:

To download the file disable ad blocking, and reload the page.

disable adblock How to disable ad blocking?

Download by magnet link 9.44 GB Download Torrent

Login using:

Загрузка...

Similar topics

Креола / Kreola (1993) DVDRip | L1
 1.4 GB   0 | 0   09-Oct-16 20:33   37
Большая игра / Molly's Game (2017) BDRip 1080p от & | iTunes
 7.49 GB   0 | 0   05-Apr-18 22:30   16
Пансионат Борегар / Beauregard (2009) HDTV 1080 | P2
 9.04 GB   0 | 0   17-Jan-17 20:19   10
Призрак / Malombra (1984) DVDRip | A
 1.41 GB   7 | 0   17-Jan-17 20:50   10


   
Current time is: 19-Dec 08:41 :: All times are UTC + 3