Название: Завтрак на Плутоне
Оригинальное название: Breakfast on Pluto
Год выпуска: 2005
Выпущено: Великобритания, Ирландия, Pathé Pictures International, Bórd Scannán na hÉireann, Northern Ireland Film and Television Commission
Жанр: Комедия, драма
Режиссер: Нил Джордан
В ролях: Киллиан Мёрфи, Лиам Нисон, Стивен Ри, Брендан Глисон, Гэвин Фрайдэй, Лоуренс Кинлан, Рут Негга, Морн Ботс, Лайэм Каннингэм, Иэн Харт, Нил Джексон, Рут МакКэйб, Сайэрэн Нолан, Джерри О'Брайен, Имонн Оуэнс, Мэри Риган, Джонатан Райан, Бритта Смит, Стивен Уоддингтон, Антония Кэмпбелл-Хьюз
О фильме:
История молодого юноши из небольшого городка, который с детства чувствовал себя не таким как все. Брошенный и отвергнутый всеми, он попадает в невероятные истории из-за своего нестандартного поведения и выживает благодаря своей находчивости, остроумию... Оказавшись в Лондоне, в поисках матери, он, пройдя сквозь всевозможные приключения, с помощью оригинальности и непохожести на обычных людей обретает любовь и счастье... Фильм снят по мотивам романа Пэта МакКейба «Завтрак на Плутоне» (Breakfast on Pluto, 1998).
Продолжительность: 02:08:55
Перевод: Дублированный
Субтитры: Русские (К. Фёдоровна), английские, финские, испанские
Навигация по главам: Есть
Файл
Качество: WEB-DL 1080p
Видео: MPEG-4 AVC, 8857 Кбит/сек, 1920x1040, 23,976 кадра/сек
Аудио #1: AC3, 6 ch, 640 Кбит/сек | Русский, профессиональный (полное дублирование) «Мосфильм»
Аудио #2: EAC3, 6 ch, 640 Кбит/сек | Английский, оригинал

Скриншоты

Инфо-файл

Общее
Уникальный идентификатор : 208480405737303112490651700335742280278 (0x9CD7DD9973CE2244B16318612653E256)
Полное имя : Завтрак.на.Плутоне.2005.WEB-DL.1080p.mkv
Формат : Matroska
Версия формата : Version 2
Размер файла : 9,31 Гбайт
Продолжительность : 2 ч. 8 м.
Режим общего битрейта : Переменный
Общий поток : 10,3 Мбит/сек
Дата кодирования : UTC 2018-04-26 02:49:29
Программа кодирования : mkvmerge v5.8.0 ('No Sleep / Pillow') built on Sep 2 2012 15:37:04
Библиотека кодирования : libebml v1.2.3 + libmatroska v1.3.0
Видео
Идентификатор : 1
Формат : AVC
Формат/Информация : Advanced Video Codec
Профиль формата : High@L4
Настройки формата : CABAC / 4 Ref Frames
Параметр CABAC формата : Да
Параметр RefFrames формата : 4 кадра
Идентификатор кодека : V_MPEG4/ISO/AVC
Продолжительность : 2 ч. 8 м.
Вид битрейта : Переменный
Битрейт : 8857 Кбит/сек
Максимальный битрейт : 15,0 Мбит/сек
Ширина : 1920 пикселей
Высота : 1040 пикселей
Соотношение сторон : 1,85:1
Режим частоты кадров : Постоянный
Частота кадров : 23,976 (24000/1001) кадра/сек
Цветовое пространство : YUV
Субдискретизация насыщенности : 4:2:0
Битовая глубина : 8 бит
Тип развёртки : Прогрессивная
Бит/(Пиксели*Кадры) : 0.185
Размер потока : 7,98 Гбайт (86%)
Язык : English
Default : Нет
Forced : Нет
Цветовой диапазон : Limited
Основные цвета : BT.709
Характеристики трансфера : BT.709
Коэффициенты матрицы : BT.709
Аудио #1
Идентификатор : 2
Формат : AC-3
Формат/Информация : Audio Coding 3
Идентификатор кодека : A_AC3
Продолжительность : 2 ч. 8 м.
Вид битрейта : Постоянный
Битрейт : 640 Кбит/сек
Каналы : 6 каналов
Расположение каналов : Front: L C R, Side: L R, LFE
Частота : 48,0 КГц
Частота кадров : 31,250 кадров/сек (1536 SPF)
Битовая глубина : 16 бит
Метод сжатия : С потерями
Задержка видео : 16 мс.
Размер потока : 590 Мбайт (6%)
Заголовок : DUB | «Мосфильм»
Язык : Russian
По умолчанию : Да
Принудительно : Нет
Аудио #2
Идентификатор : 3
Формат : E-AC-3
Формат/Информация : Enhanced Audio Coding 3
Идентификатор кодека : A_EAC3
Продолжительность : 2 ч. 8 м.
Вид битрейта : Постоянный
Битрейт : 640 Кбит/сек
Каналы : 6 каналов
Расположение каналов : Front: L C R, Side: L R, LFE
Частота : 48,0 КГц
Частота кадров : 187,500 кадров/сек (256 SPF)
Метод сжатия : С потерями
Задержка видео : 16 мс.
Размер потока : 590 Мбайт (6%)
Заголовок : Original
Язык : English
По умолчанию : Нет
Принудительно : Нет
Текст #1
Идентификатор : 4
Формат : UTF-8
Идентификатор кодека : S_TEXT/UTF8
Идентификатор кодека/Информация : UTF-8 Plain Text
Язык : Russian
По умолчанию : Нет
Принудительно : Нет
Текст #2
Идентификатор : 5
Формат : UTF-8
Идентификатор кодека : S_TEXT/UTF8
Идентификатор кодека/Информация : UTF-8 Plain Text
Язык : English
По умолчанию : Нет
Принудительно : Нет
Текст #3
Идентификатор : 6
Формат : UTF-8
Идентификатор кодека : S_TEXT/UTF8
Идентификатор кодека/Информация : UTF-8 Plain Text
Заголовок : SDH
Язык : English
По умолчанию : Нет
Принудительно : Нет
Текст #4
Идентификатор : 7
Формат : UTF-8
Идентификатор кодека : S_TEXT/UTF8
Идентификатор кодека/Информация : UTF-8 Plain Text
Язык : Finnish
По умолчанию : Нет
Принудительно : Нет
Текст #5
Идентификатор : 8
Формат : UTF-8
Идентификатор кодека : S_TEXT/UTF8
Идентификатор кодека/Информация : UTF-8 Plain Text
Язык : Spanish
По умолчанию : Нет
Принудительно : Нет
Меню
00:00:00.000 : en:Chapter 01
00:13:16.756 : en:Chapter 02
00:24:01.108 : en:Chapter 03
00:41:10.011 : en:Chapter 04
00:56:14.539 : en:Chapter 05
01:08:36.947 : en:Chapter 06
01:18:15.567 : en:Chapter 07
01:28:42.777 : en:Chapter 08
01:35:46.617 : en:Chapter 09
01:43:09.393 : en:Chapter 10
01:48:50.817 : en:Chapter 11
02:00:28.389 : en:Chapter 12

Дополнительная информация

• Исходник видео WEB-DL Amazon.
Сборка:

To download the file disable ad blocking, and reload the page.

disable adblock How to disable ad blocking?

Download by magnet link 9.31 GB Download Torrent

Login using:

Загрузка...

Similar topics

Завтрак на Плутоне / Breakfast on Pluto (2005) DVD9 | D
 7.71 GB   0 | 0   14-May-17 13:30   0
Завтрак на Плутоне / Breakfast on Pluto (2005) HDTVRip | D
 2.19 GB   4 | 0   19-Apr-17 13:00   0


   
Current time is: 19-Dec 01:07 :: All times are UTC + 3