- Кролик Питер / Peter Rabbit (2018) BDRip [H.264/1080p] - Производство: Австралия, США / 2.0 Entertainment, Animal Logic Entertainment, Animal Logic
Жанр: Комедия, Приключения, Фентези
Режиссер: Уилл Глак
Персонажи: Джеймс Корден, Файсаль Баззи, Донал Глисон, Сиа, Колин Муди, Сэм Нил, Марго Робби, Элизабет Дебики, Дэйзи Ридли, Роуз Бирн ...
Описание:
Фильм о приключениях маленького и непоседливого крольчонка по имени Питер, который хочет пробраться в огород к грозному фермеру и вдоволь полакомиться там фруктами и овощами.

Возраст: 6+ (зрителям, достигшим 6 лет)
Рейтинг MPAA: PG (рекомендуется присутствие родителей)
Дата мировой премьеры: 3 февраля 2018
Дата российской премьеры: 22 марта 2018, «WDSSPR»
Релиз от: HDReactor
Продолжительность: 01:34:43
Качество видео: BDRip [thumb]http://multi-up.com/1196208[/thumb]
Перевод: Дублированный
Субтитры: Русские, английские
Видео: AVC/H.264, 1920x802, ~10.6 Mbps
Аудио #1: Русский, AC3, 6 ch, 384 Kbps
Аудио #2: Английский, AC3, 6 ch, 640 Kbps

Mediainfo:

Полное имя                               : J:\Peter.Rabbit.2018.BDRip.1080p.HDReactor.mkv
Формат : Matroska
Версия формата : Version 2
Размер файла : 7,71 Гбайт
Продолжительность : 1 ч. 34 м.
Общий поток : 11,6 Мбит/сек
Название фильма : ~V ad~
Дата кодирования : UTC 2018-04-25 21:20:51
Программа кодирования : mkvmerge v6.5.0 ('Isn't she lovely') built on Oct 20 2013 12:50:05
Библиотека кодирования : libebml v1.3.0 + libmatroska v1.4.1
Обложка : Yes
Attachments : cover.jpg
Видео
Идентификатор : 1
Формат : AVC
Формат/Информация : Advanced Video Codec
Профиль формата : High@L4.1
Настройки формата : CABAC / 5 Ref Frames
Параметр CABAC формата : Да
Параметр RefFrames формата : 5 кадров
Идентификатор кодека : V_MPEG4/ISO/AVC
Продолжительность : 1 ч. 34 м.
Битрейт : 10,6 Мбит/сек
Ширина : 1920 пикселей
Высота : 802 пикселя
Соотношение сторон : 2,40:1
Режим частоты кадров : Постоянный
Частота кадров : 23,976 (24000/1001) кадра/сек
Цветовое пространство : YUV
Субдискретизация насыщенности : 4:2:0
Битовая глубина : 8 бит
Тип развёртки : Прогрессивная
Бит/(Пиксели*Кадры) : 0.288
Размер потока : 6,88 Гбайт (89%)
Заголовок : ~V~
Библиотека кодирования : x264 core 155 r2901 7d0ff22
Настройки программы : cabac=1 / ref=5 / deblock=1:-3:-3 / analyse=0x3:0x133 / me=umh / subme=11 / psy=1 / psy_rd=1.00:0.00 / mixed_ref=1 / me_range=32 / chroma_me=1 / trellis=2 / 8x8dct=1 / cqm=0 / deadzone=21,11 / fast_pskip=0 / chroma_qp_offset=-2 / threads=12 / lookahead_threads=1 / sliced_threads=0 / nr=0 / decimate=0 / interlaced=0 / bluray_compat=0 / constrained_intra=0 / bframes=10 / b_pyramid=2 / b_adapt=2 / b_bias=0 / direct=3 / weightb=1 / open_gop=0 / weightp=2 / keyint=240 / keyint_min=23 / scenecut=40 / intra_refresh=0 / rc=2pass / mbtree=0 / bitrate=10642 / ratetol=1.0 / qcomp=0.80 / qpmin=0 / qpmax=69 / qpstep=4 / cplxblur=20.0 / qblur=0.5 / ip_ratio=1.30 / pb_ratio=1.30 / aq=3:0.60
Язык : Английский
Default : Да
Forced : Нет
Аудио #1
Идентификатор : 2
Формат : AC-3
Формат/Информация : Audio Coding 3
Идентификатор кодека : A_AC3
Продолжительность : 1 ч. 34 м.
Вид битрейта : Постоянный
Битрейт : 384 Кбит/сек
Каналы : 6 каналов
Расположение каналов : Front: L C R, Side: L R, LFE
Частота : 48,0 КГц
Частота кадров : 31,250 кадров/сек (1536 SPF)
Битовая глубина : 16 бит
Метод сжатия : С потерями
Размер потока : 260 Мбайт (3%)
Заголовок : iTunes
Язык : Русский
Service Kind : Complete Main
Default : Да
Forced : Нет
Аудио #2
Идентификатор : 3
Формат : AC-3
Формат/Информация : Audio Coding 3
Идентификатор кодека : A_AC3
Продолжительность : 1 ч. 34 м.
Вид битрейта : Постоянный
Битрейт : 640 Кбит/сек
Каналы : 6 каналов
Расположение каналов : Front: L C R, Side: L R, LFE
Частота : 48,0 КГц
Частота кадров : 31,250 кадров/сек (1536 SPF)
Битовая глубина : 16 бит
Метод сжатия : С потерями
Размер потока : 434 Мбайт (5%)
Язык : Английский
Service Kind : Complete Main
Default : Нет
Forced : Нет
Текст #1
Идентификатор : 4
Формат : UTF-8
Идентификатор кодека : S_TEXT/UTF8
Идентификатор кодека/Информация : UTF-8 Plain Text
Заголовок : Full
Язык : Русский
Default : Нет
Forced : Нет
Текст #2
Идентификатор : 5
Формат : UTF-8
Идентификатор кодека : S_TEXT/UTF8
Идентификатор кодека/Информация : UTF-8 Plain Text
Заголовок : Full
Язык : Английский
Default : Нет
Forced : Нет
Меню
00:00:00.000 : en:Chapter 01
00:04:04.619 : en:Chapter 02
00:08:26.297 : en:Chapter 03
00:15:11.493 : en:Chapter 04
00:21:00.634 : en:Chapter 05
00:25:43.500 : en:Chapter 06
00:30:50.265 : en:Chapter 07
00:38:00.861 : en:Chapter 08
00:44:36.965 : en:Chapter 09
00:50:07.504 : en:Chapter 10
00:56:21.044 : en:Chapter 11
01:01:07.246 : en:Chapter 12
01:07:02.560 : en:Chapter 13
01:10:30.601 : en:Chapter 14
01:14:35.137 : en:Chapter 15
01:21:51.615 : en:Chapter 16
Скриншоты:

Дополнительные скриншоты:

Все одноименные релизы в КлубеВремя раздачи: 24/7 (до появления первых 3-5 скачавших)

To download the file disable ad blocking, and reload the page.

disable adblock How to disable ad blocking?

Download by magnet link 7.71 GB Download Torrent

Login using:

Загрузка...

Similar topics

Кролик Питер / Peter Rabbit (2018) BDRip [H.264/1080p]
 7.75 GB   44 | 1   05-May-18 14:00   1
Кролик Питер / Peter Rabbit (2018) BDRip [H.264/720p]
 5.02 GB   24 | 1   27-Apr-18 14:45   1


   
Current time is: 19-Dec 08:36 :: All times are UTC + 3