Autopsy / Tourniquets, Hacksaws and Graves
Жанр: Death Metal
Носитель: CD
Страна-производитель диска (релиза): United Kingdom
Год издания: 2014
Издатель (лейбл): Peaceville Records
Номер по каталогу: CDVILEF490
Страна исполнителя (группы): USA
Аудиокодек: FLAC (*.flac)
Тип рипа: image+.cue
Битрейт аудио: lossless
Продолжительность: 00:49:00
Источник (релизер): My Own Rip
Наличие сканов в содержимом раздачи: да
Треклист:
1. Savagery 02:22
2. King of Flesh Ripped 04:43
3. Tourniquets, Hacksaws and Graves 04:03
4. The Howling Dead 05:59
5. After the Cutting 03:37
6. Forever Hungry 04:40
7. Teeth of the Shadow Horde 03:28
8. All Shall Bleed 01:12
9. Deep Crimson Dreaming 05:13
10. Parasitic Eye 04:10
11. Burial 03:45
12. Autopsy 05:48

Лог создания рипа

Exact Audio Copy V1.3 from 2. September 2016
EAC extraction logfile from 25. April 2018, 20:05
Autopsy / Tourniquets, Hacksaws and Graves
Used drive : ATAPI iHAS124 E Adapter: 1 ID: 0
Read mode : SecureUtilize accurate stream : YesDefeat audio cache : YesMake use of C2 pointers : No
Read offset correction : 6Overread into Lead-In and Lead-Out : NoFill up missing offset samples with silence : YesDelete leading and trailing silent blocks : NoNull samples used in CRC calculations : YesUsed interface : Native Win32 interface for Win NT & 2000
Used output format : User Defined EncoderSelected bitrate : 1024 kBit/sQuality : HighAdd ID3 tag : NoCommand line compressor : C:\Program Files\Exact Audio Copy\Flac\flac.exeAdditional command line options : -V -8 -T "Date=%year%" -T "Genre=%genre%" %source%
TOC of the extracted CD
Track | Start | Length | Start sector | End sector --------------------------------------------------------- 1 | 0:00.00 | 2:21.48 | 0 | 10622 2 | 2:21.48 | 4:42.57 | 10623 | 31829 3 | 7:04.30 | 4:02.70 | 31830 | 50049 4 | 11:07.25 | 5:59.18 | 50050 | 76992 5 | 17:06.43 | 3:37.18 | 76993 | 93285 6 | 20:43.61 | 4:40.28 | 93286 | 114313 7 | 25:24.14 | 3:27.56 | 114314 | 129894 8 | 28:51.70 | 1:12.10 | 129895 | 135304 9 | 30:04.05 | 5:13.31 | 135305 | 158810 10 | 35:17.36 | 4:10.02 | 158811 | 177562 11 | 39:27.38 | 3:45.64 | 177563 | 194501 12 | 43:13.27 | 5:47.51 | 194502 | 220577
Range status and errors
Selected range
Filename C:\EAC\vampire_71\Autopsy - Tourniquets, Hacksaws and Graves.wav
Peak level 100.0 % Extraction speed 7.9 X Range quality 100.0 % Test CRC 93E450AC Copy CRC 93E450AC Copy OK
No errors occurred
AccurateRip summary
Track 1 accurately ripped (confidence 6) [032BA995] (AR v2)Track 2 accurately ripped (confidence 6) [17FF9912] (AR v2)Track 3 accurately ripped (confidence 6) [DB180FFD] (AR v2)Track 4 accurately ripped (confidence 6) [3305DBA2] (AR v2)Track 5 accurately ripped (confidence 6) [106FCE5D] (AR v2)Track 6 accurately ripped (confidence 6) [8EDC7159] (AR v2)Track 7 accurately ripped (confidence 6) [842F611F] (AR v2)Track 8 accurately ripped (confidence 6) [5000AA8F] (AR v2)Track 9 accurately ripped (confidence 6) [B6537651] (AR v2)Track 10 accurately ripped (confidence 6) [85D0E59B] (AR v2)Track 11 accurately ripped (confidence 6) [C23E2839] (AR v2)Track 12 accurately ripped (confidence 6) [EF6BECCE] (AR v2)
All tracks accurately ripped
End of status report
---- CUETools DB Plugin V2.1.6
[CTDB TOCID: fY4oPFZxBp5fb.htXYWnWc4BQxU-] foundSubmit result: fY4oPFZxBp5fb.htXYWnWc4BQxU- has been confirmedTrack | CTDB Status 1 | (40/42) Accurately ripped 2 | (40/42) Accurately ripped 3 | (40/42) Accurately ripped 4 | (40/42) Accurately ripped 5 | (40/42) Accurately ripped 6 | (40/42) Accurately ripped 7 | (40/42) Accurately ripped 8 | (41/42) Accurately ripped 9 | (41/42) Accurately ripped 10 | (41/42) Accurately ripped 11 | (41/42) Accurately ripped 12 | (41/42) Accurately ripped
==== Log checksum 854BECE7DD31EEFCAD554A0EF01ED2AE2EBBA97D20E43342E1ABC06A1D44C53E ====
Доп. информация:

Об исполнителе (группе)

https://www.metal-archives.com/bands/Autopsy/285

To download the file disable ad blocking, and reload the page.

disable adblock How to disable ad blocking?

Download by magnet link 386 MB Download Torrent

Login using:

Загрузка...

Similar topics



   
Current time is: 19-Dec 08:29 :: All times are UTC + 3