Cai Yilin Cài Yīlín 蔡依林 / 城堡 甜蜜慶功版 CD+DVD 台灣版 Castle CD-DVD Special Edition Taiwan Version Audio CD
Жанр: Chinese Pop, Mandopop
Носитель: CD
Страна-производитель диска (релиза): Taiwan
Год издания: 2004
Издатель (лейбл): Sony Music Entertainment Taiwan
Номер по каталогу: UPC 4716331041822
Страна исполнителя (группы): Taiwan
Аудиокодек: FLAC (*.flac)
Тип рипа: image+.cue
Битрейт аудио: lossless
Продолжительность: 00:46:13
Источник (релизер): CD
Наличие сканов в содержимом раздачи: нет
Треклист:
01. 愛情三十六計
02. 就是愛
03. 檸檬草的味道
04. 海盜
05. 始作俑者
06. Love, Love, Love
07. 消失的城堡
08. 乖貓
09. 第一優先
10. 倒帶
11. 愛情三十六計 Remix 版 (特別收錄)

Lyrics (Слова)

https://mojim.com/us100163x13.htm
The stupid webmaster over there tries to prevent people from copying the text of the lyrics, but workaround is simple: in FireFox, right-click your text, select "Inspect Element", then "Copy Inner HTML", paste it into Notepad, save as Unicode .HTM file, open that file with FireFox, and copy the text from the FireFox window as many times as you want!

Лог создания рипа

Exact Audio Copy V1.0 beta 4 from 7. December 2014EAC extraction logfile from 1. January 1980, 0:10Jolin Tsai / CastleUsed drive  : [Redacted]   Adapter: 1  ID: 0Read mode               : SecureUtilize accurate stream : YesDefeat audio cache      : NoMake use of C2 pointers : YesRead offset correction                      : 48Overread into Lead-In and Lead-Out          : NoFill up missing offset samples with silence : YesDelete leading and trailing silent blocks   : NoNull samples used in CRC calculations       : YesUsed interface                              : Native Win32 interface for Win NT & 2000Used output format : Internal WAV RoutinesSample format      : 44.100 Hz; 16 Bit; StereoTOC of the extracted CD     Track |   Start  |  Length  | Start sector | End sector    ---------------------------------------------------------        1  |  0:00.00 |  3:35.40 |         0    |    16164        2  |  3:35.40 |  4:18.65 |     16165    |    35579        3  |  7:54.30 |  4:32.22 |     35580    |    56001        4  | 12:26.52 |  4:37.26 |     56002    |    76802        5  | 17:04.03 |  4:36.03 |     76803    |    97505        6  | 21:40.06 |  3:49.39 |     97506    |   114719        7  | 25:29.45 |  4:10.67 |    114720    |   133536        8  | 29:40.37 |  3:32.26 |    133537    |   149462        9  | 33:12.63 |  3:34.61 |    149463    |   165573       10  | 36:47.49 |  4:25.34 |    165574    |   185482       11  | 41:13.08 |  5:00.08 |    185483    |   207990Range status and errorsSelected range   (Sectors 0-207990)     Filename CaiYilinJolinTsaiCastle2004LosslessAudioCD.wav     Peak level 100.0 %     Extraction speed 14.8 X     Range quality 100.0 %     Copy CRC C433A52B     Copy OKNo errors occurredEnd of status report

Содержание индексной карты (.CUE)

REM GENRE PopREM DATE 2004REM DISCID 910AD50BREM COMMENT "ExactAudioCopy v1.0b4"PERFORMER "Jolin Tsai"TITLE "Castle"FILE "Range.wav" WAVE  TRACK 01 AUDIO    TITLE "Track01"    PERFORMER "Jolin Tsai"    ISRC TWA470408001    INDEX 01 00:00:00  TRACK 02 AUDIO    TITLE "Track02"    PERFORMER "Jolin Tsai"    ISRC TWA470408002    INDEX 00 03:35:19    INDEX 01 03:35:40  TRACK 03 AUDIO    TITLE "Track03"    PERFORMER "Jolin Tsai"    ISRC TWA470408003    INDEX 00 07:53:07    INDEX 01 07:54:30  TRACK 04 AUDIO    TITLE "Track04"    PERFORMER "Jolin Tsai"    ISRC TWA470408004    INDEX 00 12:26:17    INDEX 01 12:26:52  TRACK 05 AUDIO    TITLE "Track05"    PERFORMER "Jolin Tsai"    ISRC TWA470408005    INDEX 00 17:02:60    INDEX 01 17:04:03  TRACK 06 AUDIO    TITLE "Track06"    PERFORMER "Jolin Tsai"    ISRC TWA470408006    INDEX 00 21:39:74    INDEX 01 21:40:06  TRACK 07 AUDIO    TITLE "Track07"    PERFORMER "Jolin Tsai"    ISRC TWA470408007    INDEX 00 25:28:19    INDEX 01 25:29:45  TRACK 08 AUDIO    TITLE "Track08"    PERFORMER "Jolin Tsai"    ISRC TWA470408008    INDEX 00 29:40:26    INDEX 01 29:40:37  TRACK 09 AUDIO    TITLE "Track09"    PERFORMER "Jolin Tsai"    ISRC TWA470408009    INDEX 00 33:12:28    INDEX 01 33:12:63  TRACK 10 AUDIO    TITLE "Track10"    PERFORMER "Jolin Tsai"    ISRC TWA470408010    INDEX 00 36:47:26    INDEX 01 36:47:49  TRACK 11 AUDIO    TITLE "Track11"    PERFORMER "Jolin Tsai"    ISRC TWA470418011    INDEX 00 41:09:61    INDEX 01 41:13:08
Доп. информация:
1. EAC-produced WAV file was converted to FLAC with a standalone FLAC utility. The CUE file presumes that the FLAC file is converted back to WAV.
2. I used a high quality drive. EAC autodetected its features and set "Cache" to "No" and "C2" to "Yes". I trust it, and see no need to use Test and Copy, disable caching, or ignore C2 errors.

To download the file disable ad blocking, and reload the page.

disable adblock How to disable ad blocking?

Download by magnet link 316 MB Download Torrent

Login using:

Загрузка...

Similar topics

(Chinese pop) Daria Yeh (葉柔) - I Am Daria EP - 2018, MP3, 320 kbps
 54 MB   0 | 0   27-Mar-18 12:30   0


   
Current time is: 19-Dec 08:04 :: All times are UTC + 3