The Blues Mystery
Soul Memories
-
Жанр: Blues-Rock, Rock
Носитель: CD
Страна-производитель диска (релиза): Switzerland
Год издания: 2018
Издатель (лейбл): PBR Record
Номер по каталогу: PRB82094
Страна исполнителя (группы): Switzerland
Аудиокодек: FLAC (*.flac)
Тип рипа: image+.cue
Битрейт аудио: lossless
Продолжительность: 46:42
Источник (релизер):
Наличие сканов в содержимом раздачи: да
-

01. 25 Degrees Below Zero (3:47)
02. Sit Down (4:17)
03. Has Humankind Lost its Soul (4:27)
04. I'm Afraid of the Next Blues (3:20)
05. 8000 Miles (3:40)
06. Time to Forgive (4:42)
07. Reputation (4:34)
08. Red Hot No Shot (3:28)
09. High-Level Woman (3:38)
10. Risking Love Again (3:54)
11. Keep on Working (3:01)
12 Look Out Mama (3:50)

Лог создания рипа

Exact Audio Copy V1.3 from 2. September 2016
Отчёт EAC об извлечении, выполненном 22. апреля 2018, 6:01
The Blues Mystery / Soul Memories
Дисковод: HL-DT-STDVD+-RW GH82N Adapter: 1 ID: 0
Режим чтения : ДостоверностьИспользование точного потока : ДаОтключение кэша аудио : ДаИспользование указателей C2 : Нет
Коррекция смещения при чтении : 667Способность читать области Lead-in и Lead-out : НетЗаполнение пропущенных сэмплов тишиной : ДаУдаление блоков с тишиной в начале и конце : НетПри вычислениях CRC использовались нулевые сэмплы : ДаИнтерфейс : Встроенный Win32-интерфейс для Win NT/2000
Выходной формат : Пользовательский кодировщикВыбранный битрейт : 1024 kBit/sКачество : ВысокийДобавление ID3-тега : НетУтилита сжатия : C:\Program Files (x86)\Exact Audio Copy\FLAC\FLAC.EXEДополнительные параметры : -8 -V -T "ARTIST=%artist%" -T "ALBUM=%albumtitle%" -T "DATE=%year%" -T "GENRE=%genre%" -T "COMMENT=ripped by izia1956" %source%
TOC извлечённого CD
Трек | Старт | Длительность | Начальный сектор | Конечный сектор --------------------------------------------------------------------- 1 | 0:00.00 | 3:47.15 | 0 | 17039 2 | 3:47.15 | 4:17.13 | 17040 | 36327 3 | 8:04.28 | 4:27.09 | 36328 | 56361 4 | 12:31.37 | 3:20.14 | 56362 | 71375 5 | 15:51.51 | 3:40.38 | 71376 | 87913 6 | 19:32.14 | 4:42.35 | 87914 | 109098 7 | 24:14.49 | 4:34.06 | 109099 | 129654 8 | 28:48.55 | 3:28.01 | 129655 | 145255 9 | 32:16.56 | 3:38.70 | 145256 | 161675 10 | 35:55.51 | 3:54.05 | 161676 | 179230 11 | 39:49.56 | 3:01.68 | 179231 | 192873 12 | 42:51.49 | 3:50.62 | 192874 | 210185
Характеристики диапазона извлечения и сообщения об ошибках
Выбранный диапазон
Имя файла E:\BitComet\The Blues Mystery - Soul Memories (2018)\New folder\The Blues Mystery - Soul Memories.wav
Пиковый уровень 100.0 % Скорость извлечения 3.0 X Качество диапазона 100.0 % CRC теста EFB45F36 CRC копии EFB45F36 Копирование... OK
Ошибок не произошло
AccurateRip: сводка
Трек 1 отсутствует в базе данныхТрек 2 отсутствует в базе данныхТрек 3 отсутствует в базе данныхТрек 4 отсутствует в базе данныхТрек 5 отсутствует в базе данныхТрек 6 отсутствует в базе данныхТрек 7 отсутствует в базе данныхТрек 8 отсутствует в базе данныхТрек 9 отсутствует в базе данныхТрек 10 отсутствует в базе данныхТрек 11 отсутствует в базе данныхТрек 12 отсутствует в базе данных
Ни одного трека нет в базе AccurateRip
Конец отчёта
==== Контрольная сумма отчёта EEF5E121A3ABD451F50347709239AB69EA6A7F588883AF194B4F1D81BFA792B1 ====

Содержание индексной карты (.CUE)

REM GENRE Blues-RockREM DATE 2018REM DISCID AD0AF20CREM COMMENT "ExactAudioCopy v1.3"PERFORMER "The Blues Mystery"TITLE "Soul Memories"REM COMPOSER ""FILE "The Blues Mystery - Soul Memories.flac" WAVE  TRACK 01 AUDIO    TITLE "25 Degrees Below Zero"    PERFORMER "The Blues Mystery"    REM COMPOSER "Willy Matt"    INDEX 01 00:00:00  TRACK 02 AUDIO    TITLE "Sit Down"    PERFORMER "The Blues Mystery"    REM COMPOSER "Willy Matt"    INDEX 00 03:45:29    INDEX 01 03:47:15  TRACK 03 AUDIO    TITLE "Has Humankind Lost its Soul"    PERFORMER "The Blues Mystery"    REM COMPOSER "Walter K. Thut"    INDEX 00 08:02:47    INDEX 01 08:04:28  TRACK 04 AUDIO    TITLE "I'm Afraid of the Next Blues"    PERFORMER "The Blues Mystery"    REM COMPOSER "Willy Matt"    INDEX 00 12:29:56    INDEX 01 12:31:37  TRACK 05 AUDIO    TITLE "8000 Miles"    PERFORMER "The Blues Mystery"    REM COMPOSER "Willy Matt"    INDEX 00 15:49:70    INDEX 01 15:51:51  TRACK 06 AUDIO    TITLE "Time to Forgive"    PERFORMER "The Blues Mystery"    REM COMPOSER "Willy Matt"    INDEX 00 19:30:33    INDEX 01 19:32:14  TRACK 07 AUDIO    TITLE "Reputation"    PERFORMER "The Blues Mystery"    REM COMPOSER "Willy Matt"    INDEX 00 24:12:68    INDEX 01 24:14:49  TRACK 08 AUDIO    TITLE "Red Hot No Shot"    PERFORMER "The Blues Mystery"    REM COMPOSER "Walter K. Thut"    INDEX 00 28:46:74    INDEX 01 28:48:55  TRACK 09 AUDIO    TITLE "High-Level Woman"    PERFORMER "The Blues Mystery"    REM COMPOSER "Willy Matt"    INDEX 00 32:15:00    INDEX 01 32:16:56  TRACK 10 AUDIO    TITLE "Risking Love Again"    PERFORMER "The Blues Mystery"    REM COMPOSER "Walter K. Thut"    INDEX 00 35:53:70    INDEX 01 35:55:51  TRACK 11 AUDIO    TITLE "Keep on Working"    PERFORMER "The Blues Mystery"    REM COMPOSER "Willy Matt"    INDEX 00 39:48:00    INDEX 01 39:49:56  TRACK 12 AUDIO    TITLE "Look Out Mama"    PERFORMER "The Blues Mystery"    REM COMPOSER "Willy Matt"    INDEX 00 42:48:49    INDEX 01 42:51:49
Доп. информация: Рип сделан собственноручно.
Сканы в папке.
Ознакомиться (прослушать) можно здесь
Рип от

To download the file disable ad blocking, and reload the page.

disable adblock How to disable ad blocking?

Download by magnet link 356 MB Download Torrent

Login using:

Загрузка...

Similar topics



   
Current time is: 19-Dec 08:18 :: All times are UTC + 3