Информация о фильме
Название: Добро пожаловать в Зомбилэнд
Оригинальное название: Zombieland
Год выхода: 2009
Жанр: Боевик, комедия, ужасы
Режиссер: Рубен Фляйшер
В ролях: Вуди Харрельсон, Джесси Айзенберг, Эмма Стоун, Эбигейл Бреслин, Эмбер Хёрд, Билл Мюррэй, Дерек Граф, Майк Уайт, Джейкоб Дж. Экинс, Хантер Элдридж...
О фильме:
После того, как США были разорены в результате нашествия зомби, от населения остаётся небольшая группа выживших, которая скитается по стране от побережья к побережью, сражаясь с живыми мертвецами. Однажды они останавливаются в парке развлечений, надеясь на то, что там они будут в безопасности.

Страна: США
Продолжительность: 01:27:42
Перевод: Дубляж
Файл
Кодек: x.264
Качество: BDRip 1080p
Видео: MPEG-4 AVC, 11186 Кбит/с, 1920x800, 23.976 кадр/с
Звук:
Аудио 1: Русский AC3 5.1, 48 KHz, 448 kbps - Дубляж
Аудио 2: Русский AC3 5.1, 48 KHz, 448 kbps - Авторский одноголосый закадровый - М.Чадов (по Гоблину)
Аудио 3: Русский AC3 5.1, 48 KHz, 448 kbps - Авторский одноголосый закадровый - Ю.Сербин
Аудио 4: Русский AC3 5.1, 48 KHz, 448 kbps - Авторский одноголосый закадровый - С.Ловаситов
Аудио 5: Английский DTS 5.1, 48 KHz, 1510 kbps
Субтитры: Русские, Английские

Скриншоты:

MI

Уникальный идентификатор : 222708796858508071024258514826269733070 (0xA78C277172A082FE90AAB029E0BAB0CE)
Полное имя : E:Zombieland.2009.BD.Rip.1080p.Rus.Eng.mkv
Формат : Matroska
Версия формата : Version 2
Размер файла : 8,76 Гбайт
Продолжительность : 1 ч. 27 м.
Общий поток : 14,3 Мбит/сек
Дата кодирования : UTC 2011-11-01 10:19:09
Программа кодирования : mkvmerge v5.0.1 ('Es ist Sommer') built on Oct 9 2011 11:55:43
Библиотека кодирования : libebml v1.2.2 + libmatroska v1.3.0
Видео
Идентификатор : 1
Формат : AVC
Формат/Информация : Advanced Video Codec
Профиль формата : High@L4.1
Параметр CABAC формата : Да
Параметр ReFrames формата : 5 кадров
Режим смешивания : Header stripping
Идентификатор кодека : V_MPEG4/ISO/AVC
Продолжительность : 1 ч. 27 м.
Битрейт : 11,0 Мбит/сек
Ширина : 1920 пикселей
Высота : 800 пикселей
Соотношение сторон : 2,40:1
Частота кадров : 23,976 кадра/сек
Цветовое пространство : YUV
Субдискретизация насыщенности : 4:2:0
Битовая глубина : 8 бит
Тип развёртки : Прогрессивная
Бит/(Пиксели*Кадры) : 0.299
Размер потока : 6,56 Гбайт (75%)
Библиотека кодирования : x264 core 84 r1400M 20fa784
Настройки программы : cabac=1 / ref=5 / deblock=1:-3:-3 / analyse=0x3:0x113 / me=umh / subme=10 / psy=1 / psy_rd=1.0:0.1 / mixed_ref=1 / me_range=32 / chroma_me=1 / trellis=2 / 8x8dct=1 / cqm=0 / deadzone=21,11 / fast_pskip=0 / chroma_qp_offset=-3 / threads=6 / sliced_threads=0 / nr=0 / decimate=0 / mbaff=0 / constrained_intra=0 / bframes=8 / b_pyramid=2 / b_adapt=2 / b_bias=0 / direct=3 / wpredb=1 / wpredp=2 / keyint=240 / keyint_min=24 / scenecut=40 / intra_refresh=0 / rc_lookahead=80 / rc=2pass / mbtree=1 / bitrate=11011 / ratetol=1.0 / qcomp=0.70 / qpmin=10 / qpmax=51 / qpstep=4 / cplxblur=20.0 / qblur=0.5 / ip_ratio=1.40 / aq=1:0.80 / pulldown=0 / nal_hrd=0
Язык : English
Аудио #1
Идентификатор : 2
Формат : AC-3
Формат/Информация : Audio Coding 3
Расширение режима : CM (complete main)
Режим смешивания : Header stripping
Идентификатор кодека : A_AC3
Продолжительность : 1 ч. 27 м.
Вид битрейта : Постоянный
Битрейт : 448 Кбит/сек
Каналы : 6 каналов
Расположение каналов : Front: L C R, Side: L R, LFE
Частота : 48,0 КГц
Битовая глубина : 16 бит
Метод сжатия : С потерями
Размер потока : 281 Мбайт (3%)
Заголовок : DUB AC3 5.1 448 kbps
Язык : Russian
Аудио #2
Идентификатор : 3
Формат : AC-3
Формат/Информация : Audio Coding 3
Расширение режима : CM (complete main)
Режим смешивания : Header stripping
Идентификатор кодека : A_AC3
Продолжительность : 1 ч. 27 м.
Вид битрейта : Постоянный
Битрейт : 448 Кбит/сек
Каналы : 6 каналов
Расположение каналов : Front: L C R, Side: L R, LFE
Частота : 48,0 КГц
Битовая глубина : 16 бит
Метод сжатия : С потерями
Размер потока : 281 Мбайт (3%)
Заголовок : AVO Chadov AC3 5.1 448 kbps
Язык : Russian
Аудио #3
Идентификатор : 4
Формат : AC-3
Формат/Информация : Audio Coding 3
Расширение режима : CM (complete main)
Режим смешивания : Header stripping
Идентификатор кодека : A_AC3
Продолжительность : 1 ч. 27 м.
Вид битрейта : Постоянный
Битрейт : 448 Кбит/сек
Каналы : 6 каналов
Расположение каналов : Front: L C R, Side: L R, LFE
Частота : 48,0 КГц
Битовая глубина : 16 бит
Метод сжатия : С потерями
Размер потока : 281 Мбайт (3%)
Заголовок : AVO Serbin AC3 5.1 448 kbps
Язык : Russian
Аудио #4
Идентификатор : 5
Формат : AC-3
Формат/Информация : Audio Coding 3
Расширение режима : CM (complete main)
Режим смешивания : Header stripping
Идентификатор кодека : A_AC3
Продолжительность : 1 ч. 27 м.
Вид битрейта : Постоянный
Битрейт : 448 Кбит/сек
Каналы : 6 каналов
Расположение каналов : Front: L C R, Side: L R, LFE
Частота : 48,0 КГц
Битовая глубина : 16 бит
Метод сжатия : С потерями
Размер потока : 281 Мбайт (3%)
Заголовок : AVO Lovasitov AC3 5.1 448 kbps
Язык : Russian
Аудио #5
Идентификатор : 6
Формат : DTS
Формат/Информация : Digital Theater Systems
Режим смешивания : Header stripping
Идентификатор кодека : A_DTS
Продолжительность : 1 ч. 27 м.
Вид битрейта : Постоянный
Битрейт : 1510 Кбит/сек
Каналы : 6 каналов
Расположение каналов : Front: L C R, Side: L R, LFE
Частота : 48,0 КГц
Битовая глубина : 24 бит
Метод сжатия : С потерями
Размер потока : 947 Мбайт (11%)
Заголовок : DTS 5.1 1536 kbps
Язык : English
Текст #1
Идентификатор : 7
Формат : UTF-8
Идентификатор кодека : S_TEXT/UTF8
Идентификатор кодека/Информация : UTF-8 Plain Text
Заголовок : Voronine
Язык : Russian
Текст #2
Идентификатор : 8
Формат : UTF-8
Идентификатор кодека : S_TEXT/UTF8
Идентификатор кодека/Информация : UTF-8 Plain Text
Заголовок : Goblin
Язык : Russian
Текст #3
Идентификатор : 9
Формат : UTF-8
Идентификатор кодека : S_TEXT/UTF8
Идентификатор кодека/Информация : UTF-8 Plain Text
Заголовок : Dub Outlander2WD
Язык : Russian
Текст #4
Идентификатор : 10
Формат : UTF-8
Идентификатор кодека : S_TEXT/UTF8
Идентификатор кодека/Информация : UTF-8 Plain Text
Заголовок : SDH Voronine
Язык : Russian
Текст #5
Идентификатор : 11
Формат : UTF-8
Идентификатор кодека : S_TEXT/UTF8
Идентификатор кодека/Информация : UTF-8 Plain Text
Язык : English
Текст #6
Идентификатор : 12
Формат : UTF-8
Идентификатор кодека : S_TEXT/UTF8
Идентификатор кодека/Информация : UTF-8 Plain Text
Заголовок : Tol'ko nadpisi Voronine
Язык : Russian
Текст #7
Идентификатор : 13
Формат : UTF-8
Идентификатор кодека : S_TEXT/UTF8
Идентификатор кодека/Информация : UTF-8 Plain Text
Заголовок : Tol'ko nadpisi timyrovecTM
Язык : Russian

To download the file disable ad blocking, and reload the page.

disable adblock How to disable ad blocking?

Download by magnet link 8.76 GB Download Torrent

Login using:

Загрузка...

Similar topics



   
Current time is: 19-Dec 08:04 :: All times are UTC + 3