На пределе / In the Fade / Aus dem Nichts
Страна: Германия, Франция
Жанр: драма, криминал
Год выпуска: 2017
Продолжительность: 01:46:10-Перевод: Любительский (двухголосый закадровый) | HiWay Grope
Субтитры: нет
Оригинальная аудиодорожка: нет-Режиссер: Фатих Акин / Fatih Akin-В ролях: Дайан Крюгер, Денис Москитто, Нуман Аджар, Самия Мюриэль Шанкрен, Йоханнес Криш, Ульрих Тукур, Ульрих Брандхофф, Ханна Хильсдорф, Джем Акын, Йула Будали, Адам Боусдукс, Asim Demirel-Описание: Идеальная жизнь Кати в один миг превратилась в руины - в результате террористического акта погибли её муж и сын. Друзья и семья пытаются остановить её слезы, помочь найти силы жить одной. В безумном поиске виновников бессмысленного убийства Катя не находит справедливости. И после долгой скорби, в абсолютном бессилии она идёт на радикальные меры.- -Качество видео: WEB-DLRip
Формат видео: AVI
Видео: 720x304 (2.37:1), 23.976 fps, XviD build 73 ~1571 kbps avg, 0.30 bit/pixel
Аудио: 48 kHz, AC3 Dolby Digital, 3/2 (L,C,R,l,r) + LFE ch, ~384 kbps-Сэмпл-

MediaInfo


Format                      : AVI
Format/Info                 : Audio Video Interleave
File size                   : 1.46 GiB
Duration                    : 1 h 46 min
Overall bit rate            : 1 965 kb/s
Writing application         : VirtualDubMod 1.5.10.3 | www.virtualdub-fr.org || (build 2550/release)
Writing library             : VirtualDubMod build 2550/release
Video
ID                          : 0
Format                      : MPEG-4 Visual
Format profile              : Advanced Simple@L5
Format settings             : BVOP1 / Custom Matrix
Format settings, BVOP       : 1
Format settings, QPel       : No
Format settings, GMC        : No warppoints
Format settings, Matrix     : Custom
Codec ID                    : XVID
Codec ID/Hint               : XviD
Duration                    : 1 h 46 min
Bit rate                    : 1 571 kb/s
Width                       : 720 pixels
Height                      : 304 pixels
Display aspect ratio        : 2.35:1
Frame rate                  : 23.976 (24000/1001) FPS
Color space                 : YUV
Chroma subsampling          : 4:2:0
Bit depth                   : 8 bits
Scan type                   : Progressive
Compression mode            : Lossy
Bits/(Pixel*Frame)          : 0.299
Stream size                 : 1.17 GiB (80%)
Writing library             : XviD 73
Audio
ID                          : 1
Format                      : AC-3
Format/Info                 : Audio Coding 3
Codec ID                    : 2000
Duration                    : 1 h 46 min
Bit rate mode               : Constant
Bit rate                    : 384 kb/s
Channel(s)                  : 6 channels
Channel positions           : Front: L C R, Side: L R, LFE
Sampling rate               : 48.0 kHz
Frame rate                  : 31.250 FPS (1536 SPF)
Bit depth                   : 16 bits
Compression mode            : Lossy
Stream size                 : 292 MiB (20%)
Alignment                   : Split accross interleaves
Interleave, duration        : 42  ms (1.00 video frame)
Interleave, preload duratio : 500  ms
Service kind                : Complete Main

Скриншоты

При появлении проф. озвучки, перезалью.

To download the file disable ad blocking, and reload the page.

disable adblock How to disable ad blocking?

Download by magnet link 1.46 GB Download Torrent

Login using:

Загрузка...

Similar topics



   
Current time is: 15-Dec 21:34 :: All times are UTC + 3