Тебя никогда здесь не было / You Were Never Really Here
Страна: Великобритания, Франция, США
Жанр: Tриллер, драма, детектив
Год выпуска: 2017
Продолжительность: 01:29:28-Перевод: Любительский (многоголосый закадровый) | HDrezka Studio
Субтитры: нет
Оригинальная аудиодорожка: нет-Режиссер: Линн Рэмси / Lynne Ramsay-В ролях: Хоакин Феникс, Данте Перейра-Олсон, Винисиус Дамассено, Нео Рэндолл, Джудит Анна Робертс, Фрэнк Пандо, Джон Доумен, Эдвард Лэтэм, Алекс Манетт, Клер Сюй-Описание: У сурового Джо непростая судьба. Он никого не боится, лишь вспышки воспоминаний заставляют его вздрагивать. Безжалостный герой-одиночка, идущий напролом ради спасения слабых. Для Нины, юной дочери сенатора, Джо - единственная надежда. И даже самые изощрённые и жестокие силы не должны помешать ему вызволить её из ада, в который она попала.-Качество видео: HDRip
Формат видео: AVI
Видео: 720x304 (2.37:1), 24.000 fps, XviD build 73 ~2130 kbps avg, 0.41 bit/pixel
Аудио: 48 kHz, AC3 Dolby Digital, 2/0 (L,R) ch, ~192 kbps-Сэмпл-

MediaInfo


Format                      : AVI
Format/Info                 : Audio Video Interleave
File size                   : 1.46 GiB
Duration                    : 1 h 29 min
Overall bit rate            : 2 332 kb/s
Writing application         : VirtualDubMod 1.5.10.3 | www.virtualdub-fr.org || (build 2550/release)
Writing library             : VirtualDubMod build 2550/release
Video
ID                          : 0
Format                      : MPEG-4 Visual
Format profile              : Advanced Simple@L5
Format settings             : BVOP1 / Custom Matrix
Format settings, BVOP       : 1
Format settings, QPel       : No
Format settings, GMC        : No warppoints
Format settings, Matrix     : Custom
Codec ID                    : XVID
Codec ID/Hint               : XviD
Duration                    : 1 h 29 min
Bit rate                    : 2 130 kb/s
Width                       : 720 pixels
Height                      : 304 pixels
Display aspect ratio        : 2.35:1
Frame rate                  : 24.000 FPS
Color space                 : YUV
Chroma subsampling          : 4:2:0
Bit depth                   : 8 bits
Scan type                   : Progressive
Compression mode            : Lossy
Bits/(Pixel*Frame)          : 0.406
Stream size                 : 1.33 GiB (91%)
Writing library             : XviD 73
Audio
ID                          : 1
Format                      : AC-3
Format/Info                 : Audio Coding 3
Codec ID                    : 2000
Duration                    : 1 h 29 min
Bit rate mode               : Constant
Bit rate                    : 192 kb/s
Channel(s)                  : 2 channels
Channel positions           : Front: L R
Sampling rate               : 48.0 kHz
Frame rate                  : 31.250 FPS (1536 SPF)
Bit depth                   : 16 bits
Compression mode            : Lossy
Stream size                 : 123 MiB (8%)
Alignment                   : Split accross interleaves
Interleave, duration        : 42  ms (1.00 video frame)
Interleave, preload duratio : 500  ms
Service kind                : Complete Main

Скриншоты

При появлении проф. озвучки, перезалью.

To download the file disable ad blocking, and reload the page.

disable adblock How to disable ad blocking?

Download by magnet link 1.46 GB Download Torrent

Login using:

Загрузка...

Similar topics



   
Current time is: 19-Dec 09:08 :: All times are UTC + 3