Little Steven - Born Again Savage
Жанр: Hard Rock / Garage Rock
Носитель: CD
Страна-производитель диска: USA
Год издания: 1999
Издатель: Renegade Nation
Номер по каталогу: LS00199CD
Страна исполнителя: USA / Italy
Аудиокодек: FLAC (*.flac)
Тип рипа: tracks+.cue
Битрейт аудио: lossless
Продолжительность: 01:01:05
Релизер: howdjadoo
Наличие сканов в содержимом раздачи: нет
Треклист:
01. Born Again Savage 4:38
02. Camouflage Of Righteousness 5:02
03. Guns, Drugs And Gasoline 4:59
04. Face Of God 7:38
05. Saint Francis 8:19
06. Salvation 5:10
07. Organize 2:13
08. Flesheater 6:08
09. Lust For Enlightenment 8:38
10. Tongues Of Angels 8:19

Лог создания рипа

X Lossless Decoder version 20100907 (121.0)
XLD extraction logfile from 2010-09-06 12:03:07 -0700
Little Steven & The Disciples Of Soul / Born Again Savage
Used drive : MATSHITA DVD-R UJ-85J (revision FAV1)
Use cdparanoia mode : YES (CDParanoia III 10.2 engine)Disable audio cache : OK for the drive with cache less than 2750KBMake use of C2 pointers : NORead offset correction : 102Max retry count : 100Gap status : Analyzed, Appended
TOC of the extracted CDTrack | Start | Length | Start sector | End sector---------------------------------------------------------1 | 00:00:00 | 04:38:35 | 0 | 208842 | 04:38:35 | 05:01:52 | 20885 | 435113 | 09:40:12 | 04:59:25 | 43512 | 659614 | 14:39:37 | 07:38:10 | 65962 | 1003215 | 22:17:47 | 08:18:55 | 100322 | 1377266 | 30:36:27 | 05:09:55 | 137727 | 1609567 | 35:46:07 | 02:13:23 | 160957 | 1709548 | 37:59:30 | 06:08:02 | 170955 | 1985569 | 44:07:32 | 08:38:15 | 198557 | 23742110 | 52:45:47 | 08:19:18 | 237422 | 274864
List of alternate offset correction values# | Absolute | Relative | Confidence------------------------------------------1 | 739 | 637 | 5
Track 01Filename : /Users/markgrant/Desktop/Torrents/Little Steven - Born Again Savage (1999) - FLAC/01 Little Steven & The Disciples Of Soul - Born Again Savage.flacPre-gap length : 00:02:00
CRC32 hash (test run) : 4646EA1BCRC32 hash : 4646EA1BCRC32 hash (skip zero) : 1BC60E5CAccurateRip signature : 8AA12803->Accurately ripped! (confidence 2)StatisticsRead error : 0Skipped (treated as error) : 0Edge jitter error (maybe fixed) : 0Atom jitter error (maybe fixed) : 0Drift error (maybe fixed) : 0Dropped bytes error (maybe fixed) : 0Duplicated bytes error (maybe fixed) : 0Inconsistency in error sectors : 0
Track 02Filename : /Users/markgrant/Desktop/Torrents/Little Steven - Born Again Savage (1999) - FLAC/02 Little Steven & The Disciples Of Soul - The Camouflage of Righteousness.flac
CRC32 hash (test run) : 1EFE2607CRC32 hash : 1EFE2607CRC32 hash (skip zero) : 2FEE6320AccurateRip signature : 1AC00C85->Accurately ripped! (confidence 2)StatisticsRead error : 0Skipped (treated as error) : 0Edge jitter error (maybe fixed) : 0Atom jitter error (maybe fixed) : 0Drift error (maybe fixed) : 0Dropped bytes error (maybe fixed) : 0Duplicated bytes error (maybe fixed) : 0Inconsistency in error sectors : 0
Track 03Filename : /Users/markgrant/Desktop/Torrents/Little Steven - Born Again Savage (1999) - FLAC/03 Little Steven & The Disciples Of Soul - Guns, Drugs, and Gasoline.flac
CRC32 hash (test run) : 4285119FCRC32 hash : 4285119FCRC32 hash (skip zero) : 49463970AccurateRip signature : 7CFF71D0->Accurately ripped! (confidence 2)StatisticsRead error : 0Skipped (treated as error) : 0Edge jitter error (maybe fixed) : 0Atom jitter error (maybe fixed) : 0Drift error (maybe fixed) : 0Dropped bytes error (maybe fixed) : 0Duplicated bytes error (maybe fixed) : 0Inconsistency in error sectors : 0
Track 04Filename : /Users/markgrant/Desktop/Torrents/Little Steven - Born Again Savage (1999) - FLAC/04 Little Steven & The Disciples Of Soul - The Face of God.flac
CRC32 hash (test run) : 026538B9CRC32 hash : 026538B9CRC32 hash (skip zero) : 63E1662EAccurateRip signature : B5C24EE1->Accurately ripped! (confidence 2)StatisticsRead error : 0Skipped (treated as error) : 0Edge jitter error (maybe fixed) : 0Atom jitter error (maybe fixed) : 0Drift error (maybe fixed) : 0Dropped bytes error (maybe fixed) : 0Duplicated bytes error (maybe fixed) : 0Inconsistency in error sectors : 0
Track 05Filename : /Users/markgrant/Desktop/Torrents/Little Steven - Born Again Savage (1999) - FLAC/05 Little Steven & The Disciples Of Soul - Saint Francis.flacPre-gap length : 00:01:46
CRC32 hash (test run) : CFD651C9CRC32 hash : CFD651C9CRC32 hash (skip zero) : 66FCDC78AccurateRip signature : 7A193DE7->Accurately ripped! (confidence 2)StatisticsRead error : 0Skipped (treated as error) : 0Edge jitter error (maybe fixed) : 0Atom jitter error (maybe fixed) : 0Drift error (maybe fixed) : 0Dropped bytes error (maybe fixed) : 0Duplicated bytes error (maybe fixed) : 0Inconsistency in error sectors : 0
Track 06Filename : /Users/markgrant/Desktop/Torrents/Little Steven - Born Again Savage (1999) - FLAC/06 Little Steven & The Disciples Of Soul - Salvation.flacPre-gap length : 00:01:31
CRC32 hash (test run) : C8D588DCCRC32 hash : C8D588DCCRC32 hash (skip zero) : 49C85259AccurateRip signature : A644DC4E->Accurately ripped! (confidence 2)StatisticsRead error : 0Skipped (treated as error) : 0Edge jitter error (maybe fixed) : 0Atom jitter error (maybe fixed) : 0Drift error (maybe fixed) : 0Dropped bytes error (maybe fixed) : 0Duplicated bytes error (maybe fixed) : 0Inconsistency in error sectors : 0
Track 07Filename : /Users/markgrant/Desktop/Torrents/Little Steven - Born Again Savage (1999) - FLAC/07 Little Steven & The Disciples Of Soul - Organize.flac
CRC32 hash (test run) : 2E07CD13CRC32 hash : 2E07CD13CRC32 hash (skip zero) : 32261874AccurateRip signature : F4403923->Accurately ripped! (confidence 2)StatisticsRead error : 0Skipped (treated as error) : 0Edge jitter error (maybe fixed) : 0Atom jitter error (maybe fixed) : 0Drift error (maybe fixed) : 0Dropped bytes error (maybe fixed) : 0Duplicated bytes error (maybe fixed) : 0Inconsistency in error sectors : 0
Track 08Filename : /Users/markgrant/Desktop/Torrents/Little Steven - Born Again Savage (1999) - FLAC/08 Little Steven & The Disciples Of Soul - Flesheater.flac
CRC32 hash (test run) : C901408ECRC32 hash : C901408ECRC32 hash (skip zero) : BEA83066AccurateRip signature : 62414DE3->Accurately ripped! (confidence 2)StatisticsRead error : 0Skipped (treated as error) : 0Edge jitter error (maybe fixed) : 0Atom jitter error (maybe fixed) : 0Drift error (maybe fixed) : 0Dropped bytes error (maybe fixed) : 0Duplicated bytes error (maybe fixed) : 0Inconsistency in error sectors : 0
Track 09Filename : /Users/markgrant/Desktop/Torrents/Little Steven - Born Again Savage (1999) - FLAC/09 Little Steven & The Disciples Of Soul - Lust for Enlightenment.flac
CRC32 hash (test run) : 1F69779CCRC32 hash : 1F69779CCRC32 hash (skip zero) : BCA72BA1AccurateRip signature : E229E853->Accurately ripped! (confidence 2)StatisticsRead error : 0Skipped (treated as error) : 0Edge jitter error (maybe fixed) : 0Atom jitter error (maybe fixed) : 0Drift error (maybe fixed) : 0Dropped bytes error (maybe fixed) : 0Duplicated bytes error (maybe fixed) : 0Inconsistency in error sectors : 0
Track 10Filename : /Users/markgrant/Desktop/Torrents/Little Steven - Born Again Savage (1999) - FLAC/10 Little Steven & The Disciples Of Soul - Tongues of Angels.flac
CRC32 hash (test run) : 1AF7F387CRC32 hash : 1AF7F387CRC32 hash (skip zero) : 3BB6A178AccurateRip signature : 1DCC0A81->Accurately ripped! (confidence 2)StatisticsRead error : 0Skipped (treated as error) : 0Edge jitter error (maybe fixed) : 0Atom jitter error (maybe fixed) : 0Drift error (maybe fixed) : 0Dropped bytes error (maybe fixed) : 0Duplicated bytes error (maybe fixed) : 0Inconsistency in error sectors : 0
No errors occurred
End of status report

(.CUE)

TITLE "Born Again Savage"PERFORMER "Little Steven & The Disciples Of Soul"REM GENRE "Rock"REM DATE 1999REM DISCNUMBER 1REM TOTALDISCS 1REM DISCID 920E500AFILE "01 Little Steven & The Disciples Of Soul - Born Again Savage.flac" WAVE  TRACK 01 AUDIO    TITLE "Born Again Savage"    SONGWRITER "Little Steven"    ISRC USRN29900100    INDEX 01 00:00:00FILE "02 Little Steven & The Disciples Of Soul - The Camouflage of Righteousness.flac" WAVE  TRACK 02 AUDIO    TITLE "The Camouflage of Righteousness"    SONGWRITER "Little Steven"    ISRC USRN29900101    INDEX 01 00:00:00FILE "03 Little Steven & The Disciples Of Soul - Guns, Drugs, and Gasoline.flac" WAVE  TRACK 03 AUDIO    TITLE "Guns, Drugs, and Gasoline"    SONGWRITER "Little Steven"    ISRC USRN29900102    INDEX 01 00:00:00FILE "04 Little Steven & The Disciples Of Soul - The Face of God.flac" WAVE  TRACK 04 AUDIO    TITLE "The Face of God"    SONGWRITER "Little Steven"    ISRC USRN29900103    INDEX 01 00:00:00  TRACK 05 AUDIO    TITLE "Saint Francis"    SONGWRITER "Little Steven"    ISRC USRN29900104    INDEX 00 07:36:39FILE "05 Little Steven & The Disciples Of Soul - Saint Francis.flac" WAVE    INDEX 01 00:00:00  TRACK 06 AUDIO    TITLE "Salvation"    SONGWRITER "Little Steven"    ISRC USRN29900105    INDEX 00 08:17:24FILE "06 Little Steven & The Disciples Of Soul - Salvation.flac" WAVE    INDEX 01 00:00:00FILE "07 Little Steven & The Disciples Of Soul - Organize.flac" WAVE  TRACK 07 AUDIO    TITLE "Organize"    SONGWRITER "Little Steven"    ISRC USRN29900106    INDEX 01 00:00:00FILE "08 Little Steven & The Disciples Of Soul - Flesheater.flac" WAVE  TRACK 08 AUDIO    TITLE "Flesheater"    SONGWRITER "Little Steven"    ISRC USRN29900107    INDEX 01 00:00:00FILE "09 Little Steven & The Disciples Of Soul - Lust for Enlightenment.flac" WAVE  TRACK 09 AUDIO    TITLE "Lust for Enlightenment"    SONGWRITER "Little Steven"    ISRC USRN29900108    INDEX 01 00:00:00FILE "10 Little Steven & The Disciples Of Soul - Tongues of Angels.flac" WAVE  TRACK 10 AUDIO    TITLE "Tongues of Angels"    SONGWRITER "Little Steven"    ISRC USRN29900109    INDEX 01 00:00:00

Лог проверки качества

AUDIOCHECKER v2.0 beta (build 457) - by Dester - opdester@freemail.hu~~~~~~~~~~~~~~~~~~~~~~~~~~~~~~~~~~-=== НЕ РЕДАКТИРУЙТЕ ЭТОТ ФАЙЛ! ===-
Путь: ...\Little Steven - Born Again Savage (1999) [FLAC]
01 -=- 01 Little Steven & The Disciples Of Soul - Born Again Savage.flac -=- CDDA (100%)02 -=- 02 Little Steven & The Disciples Of Soul - The Camouflage of Righteousness.flac -=- CDDA (100%)03 -=- 03 Little Steven & The Disciples Of Soul - Guns, Drugs, and Gasoline.flac -=- CDDA (100%)04 -=- 04 Little Steven & The Disciples Of Soul - The Face of God.flac -=- CDDA (100%)05 -=- 05 Little Steven & The Disciples Of Soul - Saint Francis.flac -=- CDDA (100%)06 -=- 06 Little Steven & The Disciples Of Soul - Salvation.flac -=- CDDA (100%)07 -=- 07 Little Steven & The Disciples Of Soul - Organize.flac -=- CDDA (100%)08 -=- 08 Little Steven & The Disciples Of Soul - Flesheater.flac -=- CDDA (100%)09 -=- 09 Little Steven & The Disciples Of Soul - Lust for Enlightenment.flac -=- CDDA (100%)10 -=- 10 Little Steven & The Disciples Of Soul - Tongues of Angels.flac -=- CDDA (100%)
Сводка 100,00% CDDA
190891076

Состав

"Little Steven" Van Zandt - vocals, guitars, writer, arranger, producer
Adam Clayton (U2) - bass
Jason Bonham - drums
Steve Jordan - background vocals
Jean Beauvoir - background vocals
Ben Newberry - background vocals
Frank Newberry - background vocals
"Dizzy" Daniel Moorehead - saxophone

To download the file disable ad blocking, and reload the page.

disable adblock How to disable ad blocking?

Download by magnet link 430 MB Download Torrent

Login using:

Загрузка...

Similar topics

(Hard Rock / Garage Rock) Superseed - Superseed - 2018, MP3, 320 kbps
 155 MB   0 | 0   17-Aug-18 09:40   3


   
Current time is: 19-Dec 09:16 :: All times are UTC + 3