--Metro - Egy este a Metro klubban... - 1970 (2000)-- В 1970 году был выпущен первый концертный альбом Metro, "Однажды вечером в Metro Club ...." Это единственный альбом второго «классического» состава «Метро». Запись была сделана на магнитофон UHER. Несмотря на это, качество звука на удивление хорошее.
Жанр: Classic Rock, Psychedelic, Progressive Rock, Beat, Pop Rock
Носитель: CD (compilation, archival)
Страна-производитель диска (релиза): Hungary
Год издания оригинала: 1970 Qualiton SLPX 17417
Год переиздания: 2000
Издатель (лейбл): Hungaroton
Номер по каталогу: HCD 17417
Страна исполнителя (группы) : Hungary
Дата / место записи: 31 мая 1970 года в Metro Klub
Аудио кодек: FLAC (*.flac)
Тип рипа: (tracks + .cue)
Битрейт аудио: lossless
Корректность рипа: В оригинале не было применено сжатие при конвертировании во Флак (FLAC Level 0). Для приведения в соответствие правилам пережато во FLAC Level 8 с сохранением тэгов
Наличие сканов в содержимом раздачи: full scans
Продолжительность: 01:08:09
Источник (релизер): Naftamusic
Трэклист:
1. Ha Júliát kérdeznék meg… (Sztevanovity Zorán/Sztevanovity Dusán) – 4:45
2. Hol az a hely? – 4:25
3. És közben szólt a Colt – 2:48
4. 1x, 2x, 3x… – 2:24
5. Árva bárka – 3:48
6. Kócos ördögök (Sztevanovity Zorán/Sztevanovity Dusán) – 2:25
7. Lóg a falon egy fekete kard – 4:23
8. Ha fánk vagy, örülj, hogy élsz – 4:02
9. Az én életrajzom – 4:48
10. Könnyűvérű lányok (Sztevanovity Zorán/Sztevanovity Dusán) – 3:55
11. A szívem hív, hív… (Fogarasi János/Brunner Győző) – 4:04
bonus tracks taken from singles 1967 - 1969:
12. Álmodozom a világról (Schöck Ottó/S. Nagy István/Sztevanovity Zorán) – 2:58
13. Végre itt van az óra (Sztevanovity Zorán/S. Nagy István) – 2:12
14. Bábel (Schöck Ottó/S. Nagy István) – 2:41
15. Egy fiú és egy lány (Sztevanovity Zorán/Sztevanovity Dusán) – 2:39
16. Azért is az égben járok – 3:22
17. Törött pohár – 3:22
18. Nem vagyok elveszett ember – 3:05
19. Dohányfüstös terem – 2:54
20. Pár csepp méz – 2:53
The songs of the album were written by Károly Frenreisz and Dusan Sztevanovity, except marked

Лог создания рипа

Exact Audio Copy V1.3 from 2. September 2016
EAC extraction logfile from 23. February 2018, 22:23
Metro / Egy este a Metro klubban...
Used drive : PLEXTOR PX-891SAF PLUS Adapter: 1 ID: 0
Read mode : SecureUtilize accurate stream : YesDefeat audio cache : YesMake use of C2 pointers : No
Read offset correction : 6Overread into Lead-In and Lead-Out : NoFill up missing offset samples with silence : YesDelete leading and trailing silent blocks : NoNull samples used in CRC calculations : YesUsed interface : Native Win32 interface for Win NT & 2000Gap handling : Appended to previous track
Used output format : User Defined EncoderSelected bitrate : 1024 kBit/sQuality : HighAdd ID3 tag : NoCommand line compressor : C:\Program Files (x86)\Exact Audio Copy\Flac\flac.exeAdditional command line options : -0 -V -T "ARTIST=%artist%" -T "TITLE=%title%" -T "ALBUM=%albumtitle%" -T "DATE=%year%" -T "TRACKNUMBER=%tracknr%" -T "TOTALTRACKS=%numtracks%" -T "GENRE=%genre%" -T "COMMENT=Naftamusic Release!" %source%
TOC of the extracted CD
Track | Start | Length | Start sector | End sector --------------------------------------------------------- 1 | 0:00.00 | 4:45.29 | 0 | 21403 2 | 4:45.29 | 4:25.15 | 21404 | 41293 3 | 9:10.44 | 2:48.38 | 41294 | 53931 4 | 11:59.07 | 2:24.64 | 53932 | 64795 5 | 14:23.71 | 3:28.24 | 64796 | 80419 6 | 17:52.20 | 2:25.04 | 80420 | 91298 7 | 20:17.24 | 4:23.74 | 91299 | 111097 8 | 24:41.23 | 4:02.55 | 111098 | 129302 9 | 28:44.03 | 4:48.56 | 129303 | 150958 10 | 33:32.59 | 3:55.09 | 150959 | 168592 11 | 37:27.68 | 4:14.29 | 168593 | 187671 12 | 41:42.22 | 3:00.37 | 187672 | 201208 13 | 44:42.59 | 2:14.73 | 201209 | 211331 14 | 46:57.57 | 2:43.58 | 211332 | 223614 15 | 49:41.40 | 2:41.07 | 223615 | 235696 16 | 52:22.47 | 3:24.49 | 235697 | 251045 17 | 55:47.21 | 3:24.48 | 251046 | 266393 18 | 59:11.69 | 3:07.14 | 266394 | 280432 19 | 62:19.08 | 2:56.38 | 280433 | 293670 20 | 65:15.46 | 2:53.11 | 293671 | 306656
Track 1
Filename E:\Nafta Releases\Metro - Egy este a Metro Klubban... (2000)[FLAC] - Naftamusic\01 - Ha Júliát kérdeznék meg....wav
Pre-gap length 0:00:02.00
Peak level 100.0 % Extraction speed 2.1 X Track quality 100.0 % Test CRC 53B7682C Copy CRC 53B7682C Accurately ripped (confidence 2) [214FAD08] (AR v2) Copy OK
Track 2
Filename E:\Nafta Releases\Metro - Egy este a Metro Klubban... (2000)[FLAC] - Naftamusic\02 - Hol az a hely.wav
Peak level 99.9 % Extraction speed 2.3 X Track quality 100.0 % Test CRC 2E1171CF Copy CRC 2E1171CF Accurately ripped (confidence 2) [D0FD0ED0] (AR v2) Copy OK
Track 3
Filename E:\Nafta Releases\Metro - Egy este a Metro Klubban... (2000)[FLAC] - Naftamusic\03 - És közben szólt a Colt.wav
Peak level 100.0 % Extraction speed 2.3 X Track quality 100.0 % Test CRC 007D123D Copy CRC 007D123D Accurately ripped (confidence 2) [343C6561] (AR v2) Copy OK
Track 4
Filename E:\Nafta Releases\Metro - Egy este a Metro Klubban... (2000)[FLAC] - Naftamusic\04 - 1x, 2x, 3x....wav
Peak level 99.7 % Extraction speed 2.4 X Track quality 100.0 % Test CRC A298CE02 Copy CRC A298CE02 Accurately ripped (confidence 2) [7A02EEDE] (AR v2) Copy OK
Track 5
Filename E:\Nafta Releases\Metro - Egy este a Metro Klubban... (2000)[FLAC] - Naftamusic\05 - Árva bárka.wav
Peak level 99.9 % Extraction speed 2.6 X Track quality 100.0 % Test CRC 61602292 Copy CRC 61602292 Accurately ripped (confidence 2) [386D1887] (AR v2) Copy OK
Track 6
Filename E:\Nafta Releases\Metro - Egy este a Metro Klubban... (2000)[FLAC] - Naftamusic\06 - Kócos ördögök.wav
Peak level 97.3 % Extraction speed 1.7 X Track quality 99.9 % Test CRC 539B4A9A Copy CRC 539B4A9A Accurately ripped (confidence 2) [E15196F8] (AR v2) Copy OK
Track 7
Filename E:\Nafta Releases\Metro - Egy este a Metro Klubban... (2000)[FLAC] - Naftamusic\07 - Lóg a falon egy fekete kard.wav
Peak level 99.1 % Extraction speed 3.0 X Track quality 100.0 % Test CRC 2FBB11A2 Copy CRC 2FBB11A2 Accurately ripped (confidence 2) [E99F659E] (AR v2) Copy OK
Track 8
Filename E:\Nafta Releases\Metro - Egy este a Metro Klubban... (2000)[FLAC] - Naftamusic\08 - Ha fánk vagy, örülj, hogy élsz.wav
Peak level 97.3 % Extraction speed 3.1 X Track quality 100.0 % Test CRC 0AA076BB Copy CRC 0AA076BB Accurately ripped (confidence 2) [2D51F229] (AR v2) Copy OK
Track 9
Filename E:\Nafta Releases\Metro - Egy este a Metro Klubban... (2000)[FLAC] - Naftamusic\09 - Az én életrajzom.wav
Peak level 99.8 % Extraction speed 3.3 X Track quality 100.0 % Test CRC BFD6DB9A Copy CRC BFD6DB9A Accurately ripped (confidence 2) [F5439217] (AR v2) Copy OK
Track 10
Filename E:\Nafta Releases\Metro - Egy este a Metro Klubban... (2000)[FLAC] - Naftamusic\10 - Könnyûvérû lányok.wav
Peak level 99.7 % Extraction speed 3.4 X Track quality 100.0 % Test CRC 21A43CD1 Copy CRC 21A43CD1 Accurately ripped (confidence 2) [4BCD6570] (AR v2) Copy OK
Track 11
Filename E:\Nafta Releases\Metro - Egy este a Metro Klubban... (2000)[FLAC] - Naftamusic\11 - A szívem hív, hív....wav
Peak level 100.0 % Extraction speed 3.5 X Track quality 100.0 % Test CRC B7F32DA6 Copy CRC B7F32DA6 Accurately ripped (confidence 2) [59018EBF] (AR v2) Copy OK
Track 12
Filename E:\Nafta Releases\Metro - Egy este a Metro Klubban... (2000)[FLAC] - Naftamusic\12 - Álmodozom a világról.wav
Pre-gap length 0:00:10.00
Peak level 99.3 % Extraction speed 3.4 X Track quality 100.0 % Test CRC E0349F79 Copy CRC E0349F79 Accurately ripped (confidence 2) [D09CF7A7] (AR v2) Copy OK
Track 13
Filename E:\Nafta Releases\Metro - Egy este a Metro Klubban... (2000)[FLAC] - Naftamusic\13 - Végre itt van az óra.wav
Pre-gap length 0:00:02.00
Peak level 98.3 % Extraction speed 3.3 X Track quality 100.0 % Test CRC 18DD4F36 Copy CRC 18DD4F36 Accurately ripped (confidence 2) [044AD79B] (AR v2) Copy OK
Track 14
Filename E:\Nafta Releases\Metro - Egy este a Metro Klubban... (2000)[FLAC] - Naftamusic\14 - Bábel.wav
Pre-gap length 0:00:02.00
Peak level 99.9 % Extraction speed 3.6 X Track quality 100.0 % Test CRC 0FE12D56 Copy CRC 0FE12D56 Accurately ripped (confidence 2) [D1CD0E30] (AR v2) Copy OK
Track 15
Filename E:\Nafta Releases\Metro - Egy este a Metro Klubban... (2000)[FLAC] - Naftamusic\15 - Egy kisfiú és egy kisleány.wav
Pre-gap length 0:00:02.00
Peak level 99.4 % Extraction speed 3.6 X Track quality 100.0 % Test CRC EA1B6908 Copy CRC EA1B6908 Accurately ripped (confidence 2) [7FC7E808] (AR v2) Copy OK
Track 16
Filename E:\Nafta Releases\Metro - Egy este a Metro Klubban... (2000)[FLAC] - Naftamusic\16 - Azért is az égben járok.wav
Pre-gap length 0:00:02.00
Peak level 99.6 % Extraction speed 3.8 X Track quality 100.0 % Test CRC C2752661 Copy CRC C2752661 Accurately ripped (confidence 2) [6CC7F902] (AR v2) Copy OK
Track 17
Filename E:\Nafta Releases\Metro - Egy este a Metro Klubban... (2000)[FLAC] - Naftamusic\17 - Törött pohár.wav
Pre-gap length 0:00:02.00
Peak level 99.6 % Extraction speed 3.9 X Track quality 100.0 % Test CRC 646FFE46 Copy CRC 646FFE46 Accurately ripped (confidence 2) [97131340] (AR v2) Copy OK
Track 18
Filename E:\Nafta Releases\Metro - Egy este a Metro Klubban... (2000)[FLAC] - Naftamusic\18 - Nem vagyok elveszett ember.wav
Pre-gap length 0:00:02.00
Peak level 100.0 % Extraction speed 4.0 X Track quality 100.0 % Test CRC 3A2642EE Copy CRC 3A2642EE Accurately ripped (confidence 2) [10DF9430] (AR v2) Copy OK
Track 19
Filename E:\Nafta Releases\Metro - Egy este a Metro Klubban... (2000)[FLAC] - Naftamusic\19 - Dohányfüstös terem.wav
Pre-gap length 0:00:02.00
Peak level 100.0 % Extraction speed 4.0 X Track quality 100.0 % Test CRC C7F768C2 Copy CRC C7F768C2 Accurately ripped (confidence 2) [FBFF1AAC] (AR v2) Copy OK
Track 20
Filename E:\Nafta Releases\Metro - Egy este a Metro Klubban... (2000)[FLAC] - Naftamusic\20 - Pár csepp méz.wav
Pre-gap length 0:00:02.00
Peak level 98.5 % Extraction speed 4.0 X Track quality 100.0 % Test CRC E47299D6 Copy CRC E47299D6 Accurately ripped (confidence 2) [66267404] (AR v2) Copy OK
All tracks accurately ripped
No errors occurred
End of status report
==== Log checksum FE49E60BBE3B902C7CF6EEC4AC379925D1A92EB3C0BDAC956321CEC16A938FBC ====

Содержание индексной карты (.CUE):

REM GENRE "Beat, Pop"REM DATE 2000REM DISCID 290FF814REM COMMENT "ExactAûdioCopy v1.3"PERFORMER "Metro"TITLE "Egy este a Metro klûbban..."REM COMPOSER ""FILE "01 - Ha Júliát kérdeznék meg....wav" WAVE  TRACK 01 AUDIO    TITLE "Ha Júliát kérdeznék meg..."    PERFORMER "Metro"    REM COMPOSER ""    INDEX 01 00:00:00FILE "02 - Hol az a hely.wav" WAVE  TRACK 02 AUDIO    TITLE "Hol az a hely?"    PERFORMER "Metro"    REM COMPOSER ""    INDEX 01 00:00:00FILE "03 - És közben szólt a Colt.wav" WAVE  TRACK 03 AUDIO    TITLE "És közben szólt a Colt"    PERFORMER "Metro"    REM COMPOSER ""    INDEX 01 00:00:00FILE "04 - 1x, 2x, 3x....wav" WAVE  TRACK 04 AUDIO    TITLE "1x, 2x, 3x..."    PERFORMER "Metro"    REM COMPOSER ""    INDEX 01 00:00:00FILE "05 - Árva bárka.wav" WAVE  TRACK 05 AUDIO    TITLE "Árva bárka"    PERFORMER "Metro"    REM COMPOSER ""    INDEX 01 00:00:00FILE "06 - Kócos ördögök.wav" WAVE  TRACK 06 AUDIO    TITLE "Kócos ördögök"    PERFORMER "Metro"    REM COMPOSER ""    INDEX 01 00:00:00FILE "07 - Lóg a falon egy fekete kard.wav" WAVE  TRACK 07 AUDIO    TITLE "Lóg a falon egy fekete kard"    PERFORMER "Metro"    REM COMPOSER ""    INDEX 01 00:00:00FILE "08 - Ha fánk vagy, örülj, hogy élsz.wav" WAVE  TRACK 08 AUDIO    TITLE "Ha fánk vagy, örülj, hogy élsz"    PERFORMER "Metro"    REM COMPOSER ""    INDEX 01 00:00:00FILE "09 - Az én életrajzom.wav" WAVE  TRACK 09 AUDIO    TITLE "Az én életrajzom"    PERFORMER "Metro"    REM COMPOSER ""    INDEX 01 00:00:00FILE "10 - Könnyûvérû lányok.wav" WAVE  TRACK 10 AUDIO    TITLE "Könnyûvérû lányok"    PERFORMER "Metro"    REM COMPOSER ""    INDEX 01 00:00:00FILE "11 - A szívem hív, hív....wav" WAVE  TRACK 11 AUDIO    TITLE "A szívem hív, hív..."    PERFORMER "Metro"    REM COMPOSER ""    INDEX 01 00:00:00  TRACK 12 AUDIO    TITLE "Álmodozom a világról"    PERFORMER "Metro"    REM COMPOSER ""    INDEX 00 04:04:29FILE "12 - Álmodozom a világról.wav" WAVE    INDEX 01 00:00:00  TRACK 13 AUDIO    TITLE "Végre itt van az óra"    PERFORMER "Metro"    REM COMPOSER ""    INDEX 00 02:58:37FILE "13 - Végre itt van az óra.wav" WAVE    INDEX 01 00:00:00  TRACK 14 AUDIO    TITLE "Bábel"    PERFORMER "Metro"    REM COMPOSER ""    INDEX 00 02:12:73FILE "14 - Bábel.wav" WAVE    INDEX 01 00:00:00  TRACK 15 AUDIO    TITLE "Egy kisfiú és egy kisleány"    PERFORMER "Metro"    REM COMPOSER ""    INDEX 00 02:41:58FILE "15 - Egy kisfiú és egy kisleány.wav" WAVE    INDEX 01 00:00:00  TRACK 16 AUDIO    TITLE "Azért is az égben járok"    PERFORMER "Metro"    REM COMPOSER ""    INDEX 00 02:39:07FILE "16 - Azért is az égben járok.wav" WAVE    INDEX 01 00:00:00  TRACK 17 AUDIO    TITLE "Törött pohár"    PERFORMER "Metro"    REM COMPOSER ""    INDEX 00 03:22:49FILE "17 - Törött pohár.wav" WAVE    INDEX 01 00:00:00  TRACK 18 AUDIO    TITLE "Nem vagyok elveszett ember"    PERFORMER "Metro"    REM COMPOSER ""    INDEX 00 03:22:48FILE "18 - Nem vagyok elveszett ember.wav" WAVE    INDEX 01 00:00:00  TRACK 19 AUDIO    TITLE "Dohányfüstös terem"    PERFORMER "Metro"    REM COMPOSER ""    INDEX 00 03:05:14FILE "19 - Dohányfüstös terem.wav" WAVE    INDEX 01 00:00:00  TRACK 20 AUDIO    TITLE "Pár csepp méz"    PERFORMER "Metro"    REM COMPOSER ""    INDEX 00 02:54:38FILE "20 - Pár csepp méz.wav" WAVE    INDEX 01 00:00:00

Лог проверки качества



Лог CUETools

[CUETools log; Date: 4/26/2018 12:43:45 PM; Version: 2.1.5][CTDB TOCID: z1N8EuBh6UAIF8xdZK159xqwcDw-] found.Track | CTDB Status  1   | (1/1) Accurately ripped  2   | (1/1) Accurately ripped  3   | (1/1) Accurately ripped  4   | (1/1) Accurately ripped  5   | (1/1) Accurately ripped  6   | (1/1) Accurately ripped  7   | (1/1) Accurately ripped  8   | (1/1) Accurately ripped  9   | (1/1) Accurately ripped 10   | (1/1) Accurately ripped 11   | (1/1) Accurately ripped 12   | (1/1) Accurately ripped 13   | (1/1) Accurately ripped 14   | (1/1) Accurately ripped 15   | (1/1) Accurately ripped 16   | (1/1) Accurately ripped 17   | (1/1) Accurately ripped 18   | (1/1) Accurately ripped 19   | (1/1) Accurately ripped 20   | (1/1) Accurately ripped[AccurateRip ID: 00336f48-02ea2a98-290ff814] found.Track   [  CRC   |   V2   ] Status 01     [05424a13|214fad08] (0+3/3) Accurately ripped 02     [7c12c6df|d0fd0ed0] (0+3/3) Accurately ripped 03     [95ee3b5c|343c6561] (0+3/3) Accurately ripped 04     [bd9556bf|7a02eede] (0+3/3) Accurately ripped 05     [8068a3e6|386d1887] (0+3/3) Accurately ripped 06     [238c9406|e15196f8] (0+3/3) Accurately ripped 07     [0f2a4c9c|e99f659e] (0+3/3) Accurately ripped 08     [33af5b50|2d51f229] (0+3/3) Accurately ripped 09     [a6367343|f5439217] (0+3/3) Accurately ripped 10     [22bb025e|4bcd6570] (0+3/3) Accurately ripped 11     [7f912aa0|59018ebf] (0+3/3) Accurately ripped 12     [6c99286c|d09cf7a7] (0+3/3) Accurately ripped 13     [b27d0714|044ad79b] (0+3/3) Accurately ripped 14     [67e9fc4c|d1cd0e30] (0+3/3) Accurately ripped 15     [4458f3e8|7fc7e808] (0+3/3) Accurately ripped 16     [f68df0c8|6cc7f902] (0+3/3) Accurately ripped 17     [00b02d4d|97131340] (0+3/3) Accurately ripped 18     [fd43865c|10df9430] (0+3/3) Accurately ripped 19     [a540a20c|fbff1aac] (0+3/3) Accurately ripped 20     [c8677a44|66267404] (0+3/3) Accurately ripped
Track Peak [ CRC32 ] [W/O NULL] [ LOG ] -- 100.0 [3BC55645] [B8FBF30F] 01 100.0 [53B7682C] [C58CFCDC] CRC32 02 99.9 [2E1171CF] [86399D82] CRC32 03 100.0 [007D123D] [B296532B] CRC32 04 99.7 [A298CE02] [2AA88A9C] CRC32 05 99.9 [61602292] [4864F145] CRC32 06 97.3 [539B4A9A] [96230EF9] CRC32 07 99.1 [2FBB11A2] [78572CD3] CRC32 08 97.3 [0AA076BB] [4BE0E2F5] CRC32 09 99.8 [BFD6DB9A] [1CE49FB5] CRC32 10 99.7 [21A43CD1] [F5527F26] CRC32 11 100.0 [B7F32DA6] [B97E91FA] CRC32 12 99.3 [E0349F79] [9415251A] CRC32 13 98.3 [18DD4F36] [847F4EFE] CRC32 14 99.9 [0FE12D56] [CFAB17AF] CRC32 15 99.4 [EA1B6908] [A1E2E229] CRC32 16 99.6 [C2752661] [65FB4BFF] CRC32 17 99.6 [646FFE46] [13BB1E89] CRC32 18 100.0 [3A2642EE] [86FE8F29] CRC32 19 100.0 [C7F768C2] [C71EBBDB] CRC32 20 98.5 [E47299D6] [227707CC] CRC32

Замер динамического диапазона

foobar2000 1.3.10 / Замер динамического диапазона (DR) 1.1.1Дата отчёта:  2018-04-26 12:44:37
--------------------------------------------------------------------------------Анализ: Metro / Egy este a Metro klubban...--------------------------------------------------------------------------------
DR Пики RMS Продолжительность трека--------------------------------------------------------------------------------DR9 0.00 дБ -10.75 дБ 4:45 01-Ha Júliát kérdeznék meg...DR9 0.00 дБ -11.28 дБ 4:25 02-Hol az a hely?DR10 0.00 дБ -12.00 дБ 2:49 03-És közben szólt a ColtDR10 -0.02 дБ -11.75 дБ 2:25 04-1x, 2x, 3x...DR9 0.00 дБ -11.10 дБ 3:28 05-Árva bárkaDR10 -0.23 дБ -11.44 дБ 2:25 06-Kócos ördögökDR10 -0.07 дБ -11.48 дБ 4:24 07-Lóg a falon egy fekete kardDR12 -0.23 дБ -13.71 дБ 4:03 08-Ha fánk vagy, örülj, hogy élszDR9 -0.01 дБ -11.41 дБ 4:49 09-Az én életrajzomDR9 -0.02 дБ -11.25 дБ 3:55 10-Könnyûvérû lányokDR8 0.00 дБ -9.91 дБ 4:14 11-A szívem hív, hív...DR7 -0.05 дБ -8.88 дБ 3:00 12-Álmodozom a világrólDR8 -0.14 дБ -10.53 дБ 2:15 13-Végre itt van az óraDR8 0.00 дБ -9.21 дБ 2:44 14-BábelDR8 -0.05 дБ -9.95 дБ 2:41 15-Egy kisfiú és egy kisleányDR8 -0.03 дБ -9.77 дБ 3:25 16-Azért is az égben járokDR8 -0.03 дБ -9.22 дБ 3:25 17-Törött pohárDR8 0.00 дБ -9.11 дБ 3:07 18-Nem vagyok elveszett emberDR7 0.00 дБ -8.75 дБ 2:57 19-Dohányfüstös teremDR7 -0.12 дБ -8.77 дБ 2:53 20-Pár csepp méz--------------------------------------------------------------------------------
Количество треков: 20Реальные значения DR: DR9
Частота: 44100 ГцКаналов: 2Разрядность: 16Битрейт: 959 кбит/сКодек: FLAC================================================================================
-

Back

Диск

Матрица

Состав

На концерте
Sztevanovity Zorán – vocals, guitar
Sztevanovity Dusán – rhythm guitar
Frenreisz Károly – vocals, bass
Fogarasi János – keyboards, vocal
Brunner Győző – drums, percussion
На бонус-треках
Sztevanovity Zorán – vocals, guitar
Sztevanovity Dusán – vocals, rhythm guitar
Schöck Ottó – keyboards
Rédey Gábor (12–17) – bass, vocal
Veszelinov András (12–17) – drums, percussion
Frenreisz Károly (18–20) – vocals, bass, saxophone
Brunner Győző (18–20) – drums, percussion
-

To download the file disable ad blocking, and reload the page.

disable adblock How to disable ad blocking?

Download by magnet link 497 MB Download Torrent

Login using:

Загрузка...

Similar topics



   
Current time is: 19-Dec 08:10 :: All times are UTC + 3