Violator / The Hidden Face of Death (EP)
Жанр: Thrash Metal
Носитель: CD
Год издания: 2017
Издатель (лейбл): Kill Again Records
Номер по каталогу: KA122
Страна исполнителя (группы): Brazil
Аудиокодек: FLAC (*.flac)
Тип рипа: image+.cue
Битрейт аудио: lossless
Продолжительность: 00:24:06
Источник (релизер): мой рип
Наличие сканов в содержимом раздачи: да
Треклист:
01. Infernal Rise 05:11
02. False Messiah 05:21
03. Nausea (Heresy cover) 03:10
04. Igreja Universal (Ratos de Porão cover) 03:34
05. UxFxTx - United For Thrash (Live) 03:35
06. Deadly Sadistic Experiments (Live) 03:14

Лог создания рипа

Exact Audio Copy V1.1 from 23. June 2015
Отчёт EAC об извлечении, выполненном 1. февраля 2018, 9:18
Violator / The Hidden Face of Death
Дисковод: HL-DT-STDVDRAM GTA0N Adapter: 1 ID: 0
Режим чтения : ДостоверностьИспользование точного потока : ДаОтключение кэша аудио : ДаИспользование указателей C2 : Нет
Коррекция смещения при чтении : 102Способность читать области Lead-in и Lead-out : НетЗаполнение пропущенных сэмплов тишиной : ДаУдаление блоков с тишиной в начале и конце : НетПри вычислениях CRC использовались нулевые сэмплы : ДаИнтерфейс : Встроенный Win32-интерфейс для Win NT/2000
Выходной формат : Пользовательский кодировщикВыбранный битрейт : 768 kBit/sКачество : ВысокийДобавление ID3-тега : НетУтилита сжатия : C:\Program Files (x86)\Exact Audio Copy\FLAC\FLAC.EXEДополнительные параметры : -V -8 -T "Date=%year%" -T "Genre=%genre%" %source%
TOC извлечённого CD
Трек | Старт | Длительность | Начальный сектор | Конечный сектор --------------------------------------------------------------------- 1 | 0:00.00 | 5:11.28 | 0 | 23352 2 | 5:11.28 | 5:21.07 | 23353 | 47434 3 | 10:32.35 | 3:10.00 | 47435 | 61684 4 | 13:42.35 | 3:34.00 | 61685 | 77734 5 | 17:16.35 | 3:35.37 | 77735 | 93896 6 | 20:51.72 | 3:14.37 | 93897 | 108483
Характеристики диапазона извлечения и сообщения об ошибках
Выбранный диапазон
Имя файла C:\Users\магазин\Music\Violator - The Hidden Face of Death.wav
Пиковый уровень 99.7 % Скорость извлечения 3.4 X Качество диапазона 100.0 % CRC теста 70143EF2 CRC копии 70143EF2 Копирование... OK
Ошибок не произошло
AccurateRip: сводка
Трек 1 отсутствует в базе данныхТрек 2 отсутствует в базе данныхТрек 3 отсутствует в базе данныхТрек 4 отсутствует в базе данныхТрек 5 отсутствует в базе данныхТрек 6 отсутствует в базе данных
Ни одного трека нет в базе AccurateRip
Конец отчёта
---- CUETools DB Plugin V2.1.6
[CTDB TOCID: 5JgzKYwGOzP6kTdhBvpwYDTJF_w-] disk not present in databaseSubmit result: 5JgzKYwGOzP6kTdhBvpwYDTJF_w- has been uploaded

To download the file disable ad blocking, and reload the page.

disable adblock How to disable ad blocking?

Download by magnet link 170 MB Download Torrent

Login using:

Загрузка...

Similar topics

(Thrash Metal) Disorder - Fuego Negro - 2017, MP3, 320 kbps
 68 MB   0 | 0   18-May-17 23:10   1
(Thrash Metal) Black Reaper - Blood Moon Rising - 2017, MP3, 320 kbps
 109 MB   0 | 0   18-May-17 23:10   0


   
Current time is: 19-Dec 08:43 :: All times are UTC + 3