Валерий Юрин (ex-На - На) / Жизнь моя грешная
Жанр: Pop
Носитель: CD
Страна-производитель диска (релиза): Россия
Год издания: 1995
Издатель (лейбл): J.S.P.
Номер по каталогу: 010-018-1
Страна исполнителя (группы): Россия
Аудиокодек: FLAC (*.flac)
Тип рипа: image+.cue
Битрейт аудио: lossless
Продолжительность: 00:48:04
Источник (релизер): Свой рип
Наличие сканов в содержимом раздачи: да
Треклист:
01. Здравствуй, девочка моя
02. Жизнь моя грешная
03. Я устал
04. Ночь желаний
05. Милая пленница
06. Жду гостей
07. Я тебе звонить не обещаю
08. Фея света
09. Девчонка с Машмета
10. От судьбы не уйти
11. Вот и всё

Лог создания рипа

Exact Audio Copy V1.3 from 2. September 2016
Отчёт EAC об извлечении, выполненном 5. июля 2018, 15:55
Валерий Юрин / Жизнь моя грешная
Дисковод: ASUS DRW-24D5MT Adapter: 1 ID: 0
Режим чтения : ДостоверностьИспользование точного потока : ДаОтключение кэша аудио : ДаИспользование указателей C2 : Нет
Коррекция смещения при чтении : 6Способность читать области Lead-in и Lead-out : НетЗаполнение пропущенных сэмплов тишиной : ДаУдаление блоков с тишиной в начале и конце : НетПри вычислениях CRC использовались нулевые сэмплы : ДаИнтерфейс : Встроенный Win32-интерфейс для Win NT/2000
Выходной формат : Пользовательский кодировщикВыбранный битрейт : 128 kBit/sКачество : ВысокийДобавление ID3-тега : НетУтилита сжатия : C:\Program Files (x86)\Exact Audio Copy\Flac\flac.exeДополнительные параметры : -V -8 -T "Date=%year%" -T "Genre=%genre%" %source%
TOC извлечённого CD
Трек | Старт | Длительность | Начальный сектор | Конечный сектор --------------------------------------------------------------------- 1 | 0:00.00 | 3:36.45 | 0 | 16244 2 | 3:36.45 | 3:45.40 | 16245 | 33159 3 | 7:22.10 | 4:57.71 | 33160 | 55505 4 | 12:20.06 | 4:21.74 | 55506 | 75154 5 | 16:42.05 | 4:12.02 | 75155 | 94056 6 | 20:54.07 | 3:48.00 | 94057 | 111156 7 | 24:42.07 | 4:49.64 | 111157 | 132895 8 | 29:31.71 | 4:09.20 | 132896 | 151590 9 | 33:41.16 | 4:16.22 | 151591 | 170812 10 | 37:57.38 | 4:56.19 | 170813 | 193031 11 | 42:53.57 | 5:09.68 | 193032 | 216274
Характеристики диапазона извлечения и сообщения об ошибках
Выбранный диапазон
Имя файла E:\Раздачи\Папки\Валерий Юрин (ex. На - На) - Жизнь моя грешная\Валерий Юрин - Жизнь моя грешная.wav
Пиковый уровень 99.0 % Скорость извлечения 4.2 X Качество диапазона 100.0 % CRC теста FA5350A7 CRC копии FA5350A7 Копирование... OK
Ошибок не произошло
AccurateRip: сводка
Трек 1 : извлечено точно (доверие 1) [161F61E7] (AR v2)Трек 2 : извлечено точно (доверие 1) [F1F679DE] (AR v2)Трек 3 : извлечено точно (доверие 1) [3AAA89EB] (AR v2)Трек 4 : извлечено точно (доверие 1) [F31727FF] (AR v2)Трек 5 : извлечено точно (доверие 1) [65B5747C] (AR v2)Трек 6 : извлечено точно (доверие 1) [D2513B81] (AR v2)Трек 7 : извлечено точно (доверие 1) [1DBE3656] (AR v2)Трек 8 : извлечено точно (доверие 1) [E0DE3EA4] (AR v2)Трек 9 : извлечено точно (доверие 1) [F634101D] (AR v2)Трек 10 : извлечено точно (доверие 1) [E5267220] (AR v2)Трек 11 : извлечено точно (доверие 1) [27524E5F] (AR v2)
Все треки извлечены точно
Конец отчёта
==== Контрольная сумма отчёта FDB830954FA649FA1F91D24798D4E97652EB6EF6EA68468BE9CAB2F451AB4145 ====

Содержание индексной карты (.CUE)

REM GENRE PopREM DATE 1995REM DISCID 8A0B430BREM COMMENT "ExactAudioCopy v1.3"PERFORMER "Валерий Юрин "TITLE "Жизнь моя грешная"REM COMPOSER ""FILE "Валерий Юрин  - Жизнь моя грешная.flac" WAVE  TRACK 01 AUDIO    TITLE "Здравствуй, девочка моя"    PERFORMER "Валерий Юрин "    REM COMPOSER ""    INDEX 01 00:00:00  TRACK 02 AUDIO    TITLE "Жизнь моя грешная"    PERFORMER "Валерий Юрин "    REM COMPOSER ""    INDEX 00 03:34:45    INDEX 01 03:36:45  TRACK 03 AUDIO    TITLE "Я устал"    PERFORMER "Валерий Юрин "    REM COMPOSER ""    INDEX 00 07:20:10    INDEX 01 07:22:10  TRACK 04 AUDIO    TITLE "Ночь желаний"    PERFORMER "Валерий Юрин "    REM COMPOSER ""    INDEX 00 12:18:06    INDEX 01 12:20:06  TRACK 05 AUDIO    TITLE "Милая пленница"    PERFORMER "Валерий Юрин "    REM COMPOSER ""    INDEX 00 16:40:05    INDEX 01 16:42:05  TRACK 06 AUDIO    TITLE "Жду гостей"    PERFORMER "Валерий Юрин "    REM COMPOSER ""    INDEX 00 20:52:07    INDEX 01 20:54:07  TRACK 07 AUDIO    TITLE "Я тебе звонить не обещаю"    PERFORMER "Валерий Юрин "    REM COMPOSER ""    INDEX 00 24:40:07    INDEX 01 24:42:07  TRACK 08 AUDIO    TITLE "Фея света"    PERFORMER "Валерий Юрин "    REM COMPOSER ""    INDEX 00 29:29:71    INDEX 01 29:31:71  TRACK 09 AUDIO    TITLE "Девчонка с Машмета"    PERFORMER "Валерий Юрин "    REM COMPOSER ""    INDEX 00 33:39:16    INDEX 01 33:41:16  TRACK 10 AUDIO    TITLE "От судьбы не уйти"    PERFORMER "Валерий Юрин "    REM COMPOSER ""    INDEX 00 37:55:38    INDEX 01 37:57:38  TRACK 11 AUDIO    TITLE "Вот и всё"    PERFORMER "Валерий Юрин "    REM COMPOSER ""    INDEX 00 42:51:57    INDEX 01 42:53:57

Лог проверки качества

-----------------------
DON'T MODIFY THIS FILE
-----------------------
PERFORMER: auCDtect Task Manager, ver. 1.6.0 RC1 build 1.6.0.1Copyright (c) 2008-2010 y-soft. All rights reservedhttp://y-soft.org
ANALYZER: auCDtect: CD records authenticity detector, version 0.8.2Copyright (c) 2004 Oleg Berngardt. All rights reserved.Copyright (c) 2004 Alexander Djourik. All rights reserved.
FILE: Валерий Юрин - Жизнь моя грешная.flac Size: 327095736 Hash: B7A92D4DB013BF58581C87EDFBED76EB Accuracy: -m0 Conclusion: CDDA 100% Signature: B472705D7D307D87843CA65FE1252DDD6063A1EA

If you like the topic, please click share to help develop our site.

To download the file disable ad blocking, and reload the page.

disable adblock How to disable ad blocking?

Download by magnet link 333 MB Download Torrent

Login using:

Similar topics



   
Current time is: 17-Jun 02:47 :: All times are UTC + 3