DJ Hits Soul Edition '97 Vol.2
Жанр: Pop, Soul
Носитель: CD
Страна-производитель диска (релиза): Bulgaria
Год издания: 1997
Издатель (лейбл): KJF-31-867
Номер по каталогу: SE-2701 LK 02
Аудиокодек: FLAC (*.flac)
Тип рипа: image+.cue
Битрейт аудио: lossless
Продолжительность: 01:08:11
Источник (релизер): Собственный CD
Наличие сканов в содержимом раздачи: нет
Треклист:
01. Whitney Houston - Somebody Bigger Than You & I
02. Simply Red - Angel
03. Tony Braxton - Un-break My Heart
04. Quad City DJ's - Space Jam
05. Spice Girls - Say You'll Be There
06. Jamiroquai - Virtual Insanity
07. Skee-Lo - Holdin' On
08. Seal - Fly Like An Eagle
09. MC Lyte - Cold Rock A Party
10. Ghetto People feat. L-Viz - In The Ghetto
11. Puff Daddy feat. Mane - Can't Nobody Hold Me Down
12. Tina Turner feat. Barry White - In Your Wildest Dreams
13. Da Flava - Do That To Me One More Time
14. Fresh & Funky - Pop Rock-Soul Funk Forever
15. Lost Boyz - Get Up
16. Mack 10 & Tha Dogg Pound - Nothin' But The Cavihit

Лог создания рипа

Exact Audio Copy V1.3 from 2. September 2016
Отчёт EAC об извлечении, выполненном 14. июня 2018, 10:52
Various Artist / DJ Soul Edition Vol.2
Дисковод: PIONEER DVD-RW DVR-219L Adapter: 1 ID: 0
Режим чтения : ДостоверностьИспользование точного потока : ДаОтключение кэша аудио : ДаИспользование указателей C2 : Нет
Коррекция смещения при чтении : 6Способность читать области Lead-in и Lead-out : НетЗаполнение пропущенных сэмплов тишиной : ДаУдаление блоков с тишиной в начале и конце : НетПри вычислениях CRC использовались нулевые сэмплы : ДаИнтерфейс : Встроенный Win32-интерфейс для Win NT/2000
Выходной формат : Пользовательский кодировщикВыбранный битрейт : 768 kBit/sКачество : ВысокийДобавление ID3-тега : НетУтилита сжатия : C:\Program Files (x86)\Exact Audio Copy\FLAC\FLAC.EXEДополнительные параметры : -8 -V -T "ARTIST=%artist%" -T "TITLE=%title%" -T "ALBUM=%albumtitle%" -T "DATE=%year%" -T "TRACKNUMBER=%tracknr%" -T "GENRE=%genre%" -T "COMMENT=%comment%" -T "BAND=%albuminterpret%" -T "ALBUMARTIST=%albuminterpret%" -T "COMPOSER=%composer%" %haslyrics%--tag-from-file=LYRICS="%lyricsfile%"%haslyrics% -T "DISCNUMBER=%cdnumber%" -T "TOTALDISCS=%totalcds%" -T "TOTALTRACKS=%numtracks%" %hascover%--picture="%coverfile%"%hascover% %source% -o %dest%
TOC извлечённого CD
Трек | Старт | Длительность | Начальный сектор | Конечный сектор --------------------------------------------------------------------- 1 | 0:00.30 | 4:46.57 | 30 | 21536 2 | 4:47.12 | 3:56.33 | 21537 | 39269 3 | 8:43.45 | 4:29.65 | 39270 | 59509 4 | 13:13.35 | 6:59.72 | 59510 | 91006 5 | 20:13.32 | 3:56.55 | 91007 | 108761 6 | 24:10.12 | 4:05.35 | 108762 | 127171 7 | 28:15.47 | 3:44.55 | 127172 | 144026 8 | 32:00.27 | 3:43.00 | 144027 | 160751 9 | 35:43.27 | 4:14.45 | 160752 | 179846 10 | 39:57.72 | 3:58.19 | 179847 | 197715 11 | 43:56.16 | 5:13.06 | 197716 | 221196 12 | 49:09.22 | 4:00.16 | 221197 | 239212 13 | 53:09.38 | 3:11.59 | 239213 | 253596 14 | 56:21.22 | 3:42.38 | 253597 | 270284 15 | 60:03.60 | 3:58.35 | 270285 | 288169 16 | 64:02.20 | 4:09.51 | 288170 | 306895
Характеристики диапазона извлечения и сообщения об ошибках
Выбранный диапазон
Имя файла D:\Фильмы\VA - DJ Soul Edition '97 Vol.2\VA - DJ Soul Edition '97 Vol.2.wav
Пиковый уровень 100.0 % Скорость извлечения 1.8 X Качество диапазона 100.0 % CRC теста 6987FA69 CRC копии 6987FA69 Копирование... OK
Ошибок не произошло
AccurateRip: сводка
Трек 1 отсутствует в базе данныхТрек 2 отсутствует в базе данныхТрек 3 отсутствует в базе данныхТрек 4 отсутствует в базе данныхТрек 5 отсутствует в базе данныхТрек 6 отсутствует в базе данныхТрек 7 отсутствует в базе данныхТрек 8 отсутствует в базе данныхТрек 9 отсутствует в базе данныхТрек 10 отсутствует в базе данныхТрек 11 отсутствует в базе данныхТрек 12 отсутствует в базе данныхТрек 13 отсутствует в базе данныхТрек 14 отсутствует в базе данныхТрек 15 отсутствует в базе данныхТрек 16 отсутствует в базе данных
Ни одного трека нет в базе AccurateRip
Конец отчёта
---- CUETools DB Plugin V2.1.6
[CTDB TOCID: p3M3cBC0j9g4zSFaNXn8ZsSuFtw-] foundSubmit result: already submittedTrack | CTDB Status 1 | (1/1) Accurately ripped 2 | (1/1) Accurately ripped 3 | (1/1) Accurately ripped 4 | (1/1) Accurately ripped 5 | (1/1) Accurately ripped 6 | (1/1) Accurately ripped 7 | (1/1) Accurately ripped 8 | (1/1) Accurately ripped 9 | (1/1) Accurately ripped 10 | (1/1) Accurately ripped 11 | (1/1) Accurately ripped 12 | (1/1) Accurately ripped 13 | (1/1) Accurately ripped 14 | (1/1) Accurately ripped 15 | (1/1) Accurately ripped 16 | (1/1) Accurately ripped

If you like the topic, please click share to help develop our site.

To download the file disable ad blocking, and reload the page.

disable adblock How to disable ad blocking?

Download by magnet link 437 MB Download Torrent

Login using:

Similar topics



   
Current time is: 20-Jun 12:07 :: All times are UTC + 3