Shawn Mendes / Shawn Mendes / Target Limited Edition
Жанр: Pop-Rock
Носитель: CD
Год издания: 2018
Издатель (лейбл): Island
Номер по каталогу: 6756930
Страна исполнителя (группы): Canada
Аудиокодек: FLAC (*.flac)
Тип рипа: tracks+.cue
Битрейт аудио: lossless
Продолжительность: 00:50:46
Источник (релизер): Apollo
Наличие сканов в содержимом раздачи: да
Треклист:

02. Nervous (02:44)
03. Lost in Japan (03:21)
04. Where Were You in the Morning? (03:20)
05. Like to Be You (feat. Julia Michaels) (02:39)
06. Fallin' All in You (03:55)
07. Particular Taste (02:55)
08. Why (03:58)
09. Because I Had You (02:22)
10. Queen (03:24)
11. Youth (feat. Khalid) (03:10)
12. Mutual (02:28)
13. Perfectly Wrong (03:32)
14. When You're Ready (02:49)
15. "In My Blood" ( Acoustic ) 3:32
16. "Youth" ( featuring Khalid ) ( Acoustic ) 3:09

Лог создания рипа

Exact Audio Copy V1.1 from 23. June 2015
EAC extraction logfile from 7. July 2018, 18:59
Shawn Mendes / Shawn Mendes
Used drive : HL-DT-STDVD+-RW GHB0N Adapter: 1 ID: 1
Read mode : SecureUtilize accurate stream : YesDefeat audio cache : YesMake use of C2 pointers : No
Read offset correction : 6Overread into Lead-In and Lead-Out : NoFill up missing offset samples with silence : YesDelete leading and trailing silent blocks : NoNull samples used in CRC calculations : YesUsed interface : Native Win32 interface for Win NT & 2000Gap handling : Appended to previous track
Used output format : User Defined EncoderSelected bitrate : 768 kBit/sQuality : HighAdd ID3 tag : NoCommand line compressor : C:\Program Files (x86)\Exact Audio Copy\FLAC\FLAC.EXEAdditional command line options : -8 -V -T "ARTIST=%artist%" -T "TITLE=%title%" -T "ALBUM=%albumtitle%" -T "DATE=%year%" -T "TRACKNUMBER=%tracknr%" -T "TOTALTRACKS=%numtracks%" -T "GENRE=%genre%" -T "ALBUMARTIST=%albumartist%" -T "ALBUM ARTIST=%albumartist%" -T "COMMENT=EAC Secure Mode, Test & Copy, AccurateRip, FLAC -8" %source%
TOC of the extracted CD
Track | Start | Length | Start sector | End sector --------------------------------------------------------- 1 | 0:00.00 | 3:31.27 | 0 | 15851 2 | 3:31.27 | 2:44.11 | 15852 | 28162 3 | 6:15.38 | 3:21.15 | 28163 | 43252 4 | 9:36.53 | 3:20.45 | 43253 | 58297 5 | 12:57.23 | 2:39.30 | 58298 | 70252 6 | 15:36.53 | 3:55.56 | 70253 | 87933 7 | 19:32.34 | 2:55.43 | 87934 | 101101 8 | 22:28.02 | 3:58.13 | 101102 | 118964 9 | 26:26.15 | 2:22.36 | 118965 | 129650 10 | 28:48.51 | 3:24.52 | 129651 | 145002 11 | 32:13.28 | 3:10.65 | 145003 | 159317 12 | 35:24.18 | 2:28.27 | 159318 | 170444 13 | 37:52.45 | 3:32.58 | 170445 | 186402 14 | 41:25.28 | 2:49.44 | 186403 | 199121 15 | 44:14.72 | 3:32.10 | 199122 | 215031 16 | 47:47.07 | 2:58.56 | 215032 | 228437
Track 1
Filename F:\Torrents\Downloads\Shawn Mendes - Shawn Mendes (2018) [FLAC] {B0028484-02}\01 - In My Blood.wav
Pre-gap length 0:00:02.00
Peak level 100.0 % Extraction speed 0.9 X Track quality 100.0 % Test CRC AB235AEF Copy CRC AB235AEF Accurately ripped (confidence 1) [36E64958] (AR v2) Copy OK
Track 2
Filename F:\Torrents\Downloads\Shawn Mendes - Shawn Mendes (2018) [FLAC] {B0028484-02}\02 - Nervous.wav
Peak level 100.0 % Extraction speed 1.0 X Track quality 100.0 % Test CRC 339CD7AF Copy CRC 339CD7AF Accurately ripped (confidence 1) [AADF6386] (AR v2) Copy OK
Track 3
Filename F:\Torrents\Downloads\Shawn Mendes - Shawn Mendes (2018) [FLAC] {B0028484-02}\03 - Lost in Japan.wav
Peak level 100.0 % Extraction speed 1.0 X Track quality 99.9 % Test CRC D3684458 Copy CRC D3684458 Accurately ripped (confidence 1) [5BA82F1E] (AR v2) Copy OK
Track 4
Filename F:\Torrents\Downloads\Shawn Mendes - Shawn Mendes (2018) [FLAC] {B0028484-02}\04 - Where Were You In The Morning.wav
Peak level 100.0 % Extraction speed 1.2 X Track quality 100.0 % Test CRC 0FC27E96 Copy CRC 0FC27E96 Accurately ripped (confidence 1) [901C603F] (AR v2) Copy OK
Track 5
Filename F:\Torrents\Downloads\Shawn Mendes - Shawn Mendes (2018) [FLAC] {B0028484-02}\05 - Like To Be You (feat. Julia Michaels).wav
Peak level 100.0 % Extraction speed 1.2 X Track quality 100.0 % Test CRC FE4839ED Copy CRC FE4839ED Accurately ripped (confidence 1) [28E3C251] (AR v2) Copy OK
Track 6
Filename F:\Torrents\Downloads\Shawn Mendes - Shawn Mendes (2018) [FLAC] {B0028484-02}\06 - Faillin' All In You.wav
Peak level 100.0 % Extraction speed 1.4 X Track quality 100.0 % Test CRC 3D0CEDA8 Copy CRC 3D0CEDA8 Accurately ripped (confidence 1) [C2F260CB] (AR v2) Copy OK
Track 7
Filename F:\Torrents\Downloads\Shawn Mendes - Shawn Mendes (2018) [FLAC] {B0028484-02}\07 - Particular Taste.wav
Peak level 100.0 % Extraction speed 1.4 X Track quality 100.0 % Test CRC 3061DAC0 Copy CRC 3061DAC0 Accurately ripped (confidence 1) [43EC0419] (AR v2) Copy OK
Track 8
Filename F:\Torrents\Downloads\Shawn Mendes - Shawn Mendes (2018) [FLAC] {B0028484-02}\08 - Why.wav
Peak level 100.0 % Extraction speed 1.5 X Track quality 100.0 % Test CRC 5D7009A5 Copy CRC 5D7009A5 Accurately ripped (confidence 1) [A46B66A4] (AR v2) Copy OK
Track 9
Filename F:\Torrents\Downloads\Shawn Mendes - Shawn Mendes (2018) [FLAC] {B0028484-02}\09 - Because I Had You.wav
Peak level 100.0 % Extraction speed 1.5 X Track quality 100.0 % Test CRC C0D604F3 Copy CRC C0D604F3 Accurately ripped (confidence 1) [55AE4717] (AR v2) Copy OK
Track 10
Filename F:\Torrents\Downloads\Shawn Mendes - Shawn Mendes (2018) [FLAC] {B0028484-02}\10 - Queen.wav
Peak level 100.0 % Extraction speed 1.6 X Track quality 100.0 % Test CRC D789749B Copy CRC D789749B Accurately ripped (confidence 1) [47FDC783] (AR v2) Copy OK
Track 11
Filename F:\Torrents\Downloads\Shawn Mendes - Shawn Mendes (2018) [FLAC] {B0028484-02}\11 - Youth (feat. Khalid).wav
Peak level 100.0 % Extraction speed 1.4 X Track quality 99.9 % Test CRC 24CB74F4 Copy CRC 24CB74F4 Accurately ripped (confidence 1) [705CBB67] (AR v2) Copy OK
Track 12
Filename F:\Torrents\Downloads\Shawn Mendes - Shawn Mendes (2018) [FLAC] {B0028484-02}\12 - Mutual.wav
Peak level 100.0 % Extraction speed 1.3 X Track quality 99.9 % Test CRC F43C2B3A Copy CRC F43C2B3A Accurately ripped (confidence 1) [A279EA19] (AR v2) Copy OK
Track 13
Filename F:\Torrents\Downloads\Shawn Mendes - Shawn Mendes (2018) [FLAC] {B0028484-02}\13 - Perfect.wav
Peak level 100.0 % Extraction speed 1.8 X Track quality 100.0 % Test CRC F04F3A19 Copy CRC F04F3A19 Accurately ripped (confidence 1) [11AE616F] (AR v2) Copy OK
Track 14
Filename F:\Torrents\Downloads\Shawn Mendes - Shawn Mendes (2018) [FLAC] {B0028484-02}\14 - When You're Ready.wav
Peak level 100.0 % Extraction speed 1.8 X Track quality 100.0 % Test CRC 22ED5305 Copy CRC 22ED5305 Accurately ripped (confidence 1) [42D7AC30] (AR v2) Copy OK
Track 15
Filename F:\Torrents\Downloads\Shawn Mendes - Shawn Mendes (2018) [FLAC] {B0028484-02}\15 - In My Blood (Live Session).wav
Peak level 100.0 % Extraction speed 1.6 X Track quality 99.9 % Test CRC D7DDC998 Copy CRC D7DDC998 Accurately ripped (confidence 1) [E4D653F1] (AR v2) Copy OK
Track 16
Filename F:\Torrents\Downloads\Shawn Mendes - Shawn Mendes (2018) [FLAC] {B0028484-02}\16 - Where Were You In The Morning (Acoustic).wav
Peak level 99.5 % Extraction speed 1.9 X Track quality 100.0 % Test CRC 26A0D372 Copy CRC 26A0D372 Accurately ripped (confidence 1) [801BF56E] (AR v2) Copy OK
All tracks accurately ripped
No errors occurred
End of status report
---- CUETools DB Plugin V2.1.6
[CTDB TOCID: ye_VQaRLDVA9FdVoFJPxxgbt1xs-] foundSubmit result: already submittedTrack | CTDB Status 1 | (15/15) Accurately ripped 2 | (15/15) Accurately ripped 3 | (15/15) Accurately ripped 4 | (15/15) Accurately ripped 5 | (15/15) Accurately ripped 6 | (15/15) Accurately ripped 7 | (15/15) Accurately ripped 8 | (15/15) Accurately ripped 9 | (15/15) Accurately ripped 10 | (15/15) Accurately ripped 11 | (15/15) Accurately ripped 12 | (15/15) Accurately ripped 13 | (15/15) Accurately ripped 14 | (15/15) Accurately ripped 15 | (15/15) Accurately ripped 16 | (14/15) Accurately ripped
==== Log checksum 0B5EDA377F817CF67B6A9C50702C352C977AF878567D6D7B18714E4615BC5B68 ====

Содержание индексной карты (.CUE)

REM GENRE PopREM DATE 2018REM DISCID FC0BE510REM COMMENT "ExactAudioCopy v1.1"PERFORMER "Shawn Mendes"TITLE "Shawn Mendes"FILE "01 - In My Blood.wav" WAVE  TRACK 01 AUDIO    TITLE "In My Blood"    PERFORMER "Shawn Mendes"    INDEX 01 00:00:00FILE "02 - Nervous.wav" WAVE  TRACK 02 AUDIO    TITLE "Nervous"    PERFORMER "Shawn Mendes"    INDEX 01 00:00:00FILE "03 - Lost in Japan.wav" WAVE  TRACK 03 AUDIO    TITLE "Lost in Japan"    PERFORMER "Shawn Mendes"    INDEX 01 00:00:00FILE "04 - Where Were You In The Morning.wav" WAVE  TRACK 04 AUDIO    TITLE "Where Were You In The Morning?"    PERFORMER "Shawn Mendes"    INDEX 01 00:00:00FILE "05 - Like To Be You (feat. Julia Michaels).wav" WAVE  TRACK 05 AUDIO    TITLE "Like To Be You (feat. Julia Michaels)"    PERFORMER "Shawn Mendes"    INDEX 01 00:00:00FILE "06 - Faillin' All In You.wav" WAVE  TRACK 06 AUDIO    TITLE "Faillin' All In You"    PERFORMER "Shawn Mendes"    INDEX 01 00:00:00FILE "07 - Particular Taste.wav" WAVE  TRACK 07 AUDIO    TITLE "Particular Taste"    PERFORMER "Shawn Mendes"    INDEX 01 00:00:00FILE "08 - Why.wav" WAVE  TRACK 08 AUDIO    TITLE "Why"    PERFORMER "Shawn Mendes"    INDEX 01 00:00:00FILE "09 - Because I Had You.wav" WAVE  TRACK 09 AUDIO    TITLE "Because I Had You"    PERFORMER "Shawn Mendes"    INDEX 01 00:00:00FILE "10 - Queen.wav" WAVE  TRACK 10 AUDIO    TITLE "Queen"    PERFORMER "Shawn Mendes"    INDEX 01 00:00:00FILE "11 - Youth (feat. Khalid).wav" WAVE  TRACK 11 AUDIO    TITLE "Youth (feat. Khalid)"    PERFORMER "Shawn Mendes"    INDEX 01 00:00:00FILE "12 - Mutual.wav" WAVE  TRACK 12 AUDIO    TITLE "Mutual"    PERFORMER "Shawn Mendes"    INDEX 01 00:00:00FILE "13 - Perfect.wav" WAVE  TRACK 13 AUDIO    TITLE "Perfect"    PERFORMER "Shawn Mendes"    INDEX 01 00:00:00FILE "14 - When You're Ready.wav" WAVE  TRACK 14 AUDIO    TITLE "When You're Ready"    PERFORMER "Shawn Mendes"    INDEX 01 00:00:00FILE "15 - In My Blood (Live Session).wav" WAVE  TRACK 15 AUDIO    TITLE "In My Blood (Live Session)"    PERFORMER "Shawn Mendes"    INDEX 01 00:00:00FILE "16 - Where Were You In The Morning (Acoustic).wav" WAVE  TRACK 16 AUDIO    TITLE "Where Were You In The Morning? (Acoustic)"    PERFORMER "Shawn Mendes"    INDEX 01 00:00:00

To download the file disable ad blocking, and reload the page.

disable adblock How to disable ad blocking?

Download by magnet link 311 MB Download Torrent

Login using:

Similar topics

(Pop Rock) Sean Anthony Sullivan - In A Dusty Dream - 2018, MP3, 320 kbps
 120 MB   0 | 0   10-Dec-18 13:50   0
(Folk Rock/Pop) Tai Shan - Meet In The Middle - 2018, MP3, 320 kbps
 109 MB   0 | 0   12-Aug-18 09:00   0


   
Current time is: 20-Jan 13:35 :: All times are UTC + 3