Прогулка по Уфе
Дата/Год выпуска: 2011
Страна: Россия
Жанр: путешествия и туризм
Продолжительность: 00:45:20
Перевод: Не требуется
Русские субтитры: нет
Оригинальная аудиодорожка: русский
Режиссер: Алексей Костин
Телеканал: RTG TV
Описание: Уфа – город с древней и богатой историей. В нем чувствуется национальный колорит, своеобразие столицы региона – республики Башкортостан, которая находится на границе Европы и Азии. Город был основан как крепость в 16-м веке, он защищал восточные границы страны и местное население от набегов степных племен. Находясь на самом стыке двух цивилизаций - Западной и Восточной - город выступал как связующее звено между ними.Сегодняшняя Уфа - крупный мегаполис. Город-миллионер. Один из ведущих экономических, научных и культурных центров России. Ведущая Надежда Лебедева осмотрела все достопримечательности города, узнала, как была найдена коллекция «Золото сарматов», чем уникален хазарский мамонт и как выглядит «посланец Вселенной» Стерлитамакский метеорит.
качество: SATRip
формат: AVI
Видео: MPEG4, XviD, 720x560 (1.286), 25.000 fps, 1 400 Kbps (0.139 bit/pixel)
Аудио: MP3, 48.0 KHz, 2 ch, 128 Kbps, CBR

MediaInfo

GeneralComplete name                            : G:\Прогулка по Уфе.aviFormat                                   : AVIFormat/Info                              : Audio Video InterleaveFile size                                : 500 MiBDuration                                 : 45mn 20sOverall bit rate                         : 1 541 KbpsWriting library                          : TMPGEnc 4.0 XPress Version. 4.7.7.307
VideoID : 0Format : MPEG-4 VisualFormat profile : [email protected] settings, BVOP : NoFormat settings, QPel : NoFormat settings, GMC : No warppointsFormat settings, Matrix : Default (H.263)Codec ID : XVIDCodec ID/Hint : XviDDuration : 45mn 20sBit rate : 1 400 KbpsWidth : 720 pixelsHeight : 560 pixelsDisplay aspect ratio : 1.286Frame rate : 25.000 fpsColor space : YUVChroma subsampling : 4:2:0Bit depth : 8 bitsScan type : ProgressiveCompression mode : LossyBits/(Pixel*Frame) : 0.139Stream size : 454 MiB (91%)Writing library : Lavc52.92.0
AudioID : 1Format : MPEG AudioFormat version : Version 1Format profile : Layer 3Mode : Joint stereoCodec ID : 55Codec ID/Hint : MP3Duration : 45mn 20sBit rate mode : ConstantBit rate : 128 KbpsChannel(s) : 2 channelsSampling rate : 48.0 KHzCompression mode : LossyStream size : 41.5 MiB (8%)Alignment : Aligned on interleavesInterleave, duration : 40 ms (1.01 video frame)Interleave, preload duration : 384 ms

Скриншоты


If you like the topic, please click share to help develop our site.

To download the file disable ad blocking, and reload the page.

disable adblock How to disable ad blocking?

Download by magnet link 500 MB Download Torrent

Login using:

Similar topics



   
Current time is: 19-Jul 13:16 :: All times are UTC + 3