Коломенский Кремль
Дата/Год выпуска: 2011
Страна: Россия
Жанр: путешествия и туризм
Продолжительность: 00:33:02
Перевод: Не требуется
Русские субтитры: нет
Оригинальная аудиодорожка: нет
Режиссер: Сергей Дудкин, Серегей Протасов
Телеканал: RTG TV
Описание: Коломенский кремль – важнейший историко-культурный памятник Коломны, сложив­шийся в XIV – XIX веках. Он занимает тер­риторию 24 гектара и опоясан фрагментами крепостной стены и сохранившимися башнями. Возведённая в 1525 – 1531 годах по проекту итальянских мастеров, крепостная стена насчитывала первоначально 17 башен (из них четыре – проездные) и имела протяжённость 1938 метров. Высота стен достигала от 18 до 21 метра, толщина – от 3 до 4,5 метров. В настоящее время сохранилось 7 башен кремля. На территории кремля находится Соборная площадь – духовный центр города. Архитектурный облик площади формировался с XIV – XIX века. Центральное место на ней занимает Успенский кафедральный собор, выстроенный по указу Дмитрия Донского в честь побед русского оружия над татаро-монгольским игом в двух битвах: на реке Вожже (1378 год) и Куликовом поле (1380 год). Справа от Собора находится шатровая колокольня (XVII век) – самая мощная звонница такого типа в России. Рядом со звонницей располагается Тихвинский собор (XVIII-XIX века) – зимний соборный храм Коломны. Слева от Собора находится Ново-Голутвин Свято-Троицкий монастырь (XVI-XIX века). Напротив монастыря – школа (XIX век).
качество: SATRip
формат: AVI
Видео: MPEG4, XviD, 704x528 (4:3), 25.000 fps, 1 400 Kbps (0.151 bit/pixel)
Аудио: MP3, 48.0 KHz, 2 ch, 128 Kbps, CBR

MediaInfo

GeneralComplete name                            : G:\Коломенский Кремль.aviFormat                                   : AVIFormat/Info                              : Audio Video InterleaveFile size                                : 369 MiBDuration                                 : 33mn 32sOverall bit rate                         : 1 537 KbpsWriting application                      : VirtualDubMod 1.5.10.2 (build 2540/release)Writing library                          : VirtualDubMod build 2540/release
VideoID : 0Format : MPEG-4 VisualFormat profile : Advanced [email protected] settings, BVOP : 1Format settings, QPel : NoFormat settings, GMC : No warppointsFormat settings, Matrix : Default (MPEG)Codec ID : XVIDCodec ID/Hint : XviDDuration : 33mn 32sBit rate : 1 400 KbpsWidth : 704 pixelsHeight : 528 pixelsDisplay aspect ratio : 4:3Frame rate : 25.000 fpsColor space : YUVChroma subsampling : 4:2:0Bit depth : 8 bitsScan type : ProgressiveCompression mode : LossyBits/(Pixel*Frame) : 0.151Stream size : 336 MiB (91%)Writing library : XviD 1.2.1 (UTC 2008-12-04)
AudioID : 1Format : MPEG AudioFormat version : Version 1Format profile : Layer 3Codec ID : 55Codec ID/Hint : MP3Duration : 33mn 32sBit rate mode : ConstantBit rate : 128 KbpsChannel(s) : 2 channelsSampling rate : 48.0 KHzCompression mode : LossyStream size : 30.7 MiB (8%)Alignment : Aligned on interleavesInterleave, duration : 40 ms (1.00 video frame)Interleave, preload duration : 504 msWriting library : LAME3.98rEncoding settings : -m s -V 4 -q 2 -lowpass 17 -b 128

Скриншоты


If you like the topic, please click share to help develop our site.

To download the file disable ad blocking, and reload the page.

disable adblock How to disable ad blocking?

Download by magnet link 369 MB Download Torrent

Login using:

Similar topics



   
Current time is: 17-Feb 17:27 :: All times are UTC + 3