Andrea Motis - Emotional Dance
Жанр: Vocal Jazz
Носитель: CD
Страна-производитель диска (релиза): Япония
Год издания: 2017
Издатель (лейбл): Impulse!/Universal
Номер по каталогу: UCCI-1038
Страна исполнителя (группы): Испания
Аудиокодек: FLAC (*.flac)
Тип рипа: tracks+.cue
Битрейт аудио: lossless
Продолжительность: 66:14
Источник (релизер): bagofhurt
Наличие сканов в содержимом раздачи: да
Треклист:
01. He's Funny That Way (Whiting-Daniels) - 4:50
02. I Didn't Tell Them Why (Motis) - 2:30
03. Matilda (Sambeat-Alberola) - 6:52
04. Chega de Saudade (Jobim-DeMoraes) - 5:48
05. If You Give Them More Than You Can (Motis) - 4:05
06. Never Will I Marry (Loesser) - 3:19
07. An Emotional Dance (Terraza-Sheiman) - 4:33
08. You'd Be So Nice to Come Home To (Porter) - 4:23
09. La Gavina (Sires i Puig) - 4:46
10. Baby Girl (Jefferson) - 4:23
11. Save the Orangutan (Motis) - 4:00
12. I Remember You (Scherzinger-Mercer) - 4:32
13. Senor Blues (Silver) - 3:49
14. Louisiana o Els Camps de Coto (Els Amics de les Arts) - 4:35
15. Carinhoso (Braga-Pixinguinha) - 3:49

Лог создания рипа

Exact Audio Copy V1.3 from 2. September 2016
EAC extraction logfile from 31. August 2018, 15:09
Andrea Motis / Emotional Dance
Used drive : HL-DT-STBD-RE WH16NS60 Adapter: 1 ID: 0
Read mode : SecureUtilize accurate stream : YesDefeat audio cache : YesMake use of C2 pointers : No
Read offset correction : 6Overread into Lead-In and Lead-Out : NoFill up missing offset samples with silence : YesDelete leading and trailing silent blocks : NoNull samples used in CRC calculations : YesUsed interface : Native Win32 interface for Win NT & 2000Gap handling : Appended to previous track
Used output format : User Defined EncoderSelected bitrate : 1024 kBit/sQuality : HighAdd ID3 tag : NoCommand line compressor : C:\Program Files (x86)\Exact Audio Copy\FLAC\FLAC.EXEAdditional command line options : -8 -e -p -V -T "ARTIST=%artist%" -T "TITLE=%title%" -T "ALBUM=%albumtitle%" -T "DATE=%year%" -T "TRACKNUMBER=%tracknr%" -T "GENRE=%genre%" -T "COMMENT=%comment%" -T "BAND=%albuminterpret%" -T "ALBUMARTIST=%albuminterpret%" -T "PERFORMER=%albuminterpret%" -T "COMPOSER=%composer%" %haslyrics%--tag-from-file=LYRICS="%lyricsfile%"%haslyrics% -T "DISCNUMBER=%cdnumber%" -T "TOTALDISCS=%totalcds%" -T "TOTALTRACKS=%numtracks%" %hascover%--picture="%coverfile%"%hascover% %source% -o %dest%
TOC of the extracted CD
Track | Start | Length | Start sector | End sector --------------------------------------------------------- 1 | 0:00.00 | 4:49.68 | 0 | 21742 2 | 4:49.68 | 2:29.69 | 21743 | 32986 3 | 7:19.62 | 6:51.38 | 32987 | 63849 4 | 14:11.25 | 5:48.16 | 63850 | 89965 5 | 19:59.41 | 4:05.15 | 89966 | 108355 6 | 24:04.56 | 3:19.32 | 108356 | 123312 7 | 27:24.13 | 4:33.06 | 123313 | 143793 8 | 31:57.19 | 4:23.12 | 143794 | 163530 9 | 36:20.31 | 4:45.43 | 163531 | 184948 10 | 41:05.74 | 4:22.59 | 184949 | 204657 11 | 45:28.58 | 4:00.28 | 204658 | 222685 12 | 49:29.11 | 4:31.38 | 222686 | 243048 13 | 54:00.49 | 3:49.14 | 243049 | 260237 14 | 57:49.63 | 4:35.15 | 260238 | 280877 15 | 62:25.03 | 3:48.46 | 280878 | 298023
Track 1
Filename E:\Rips\EAC\Andrea Motis - 2017 - Emotional Dance {UCCI-1038} [CD-FLAC]\1.01 - He's Funny That Way.wav
Pre-gap length 0:00:02.00
Peak level 100.0 % Extraction speed 5.2 X Track quality 100.0 % Test CRC B38D740E Copy CRC B38D740E Accurately ripped (confidence 2) [C6FFE603] (AR v2) Copy OK
Track 2
Filename E:\Rips\EAC\Andrea Motis - 2017 - Emotional Dance {UCCI-1038} [CD-FLAC]\1.02 - I Didn't Tell Them Why.wav
Peak level 93.4 % Extraction speed 5.2 X Track quality 100.0 % Test CRC E6DB6B76 Copy CRC E6DB6B76 Accurately ripped (confidence 2) [E845C9C0] (AR v2) Copy OK
Track 3
Filename E:\Rips\EAC\Andrea Motis - 2017 - Emotional Dance {UCCI-1038} [CD-FLAC]\1.03 - Matilda.wav
Peak level 93.2 % Extraction speed 6.5 X Track quality 100.0 % Test CRC DFF7D2D3 Copy CRC DFF7D2D3 Accurately ripped (confidence 2) [37FBD46B] (AR v2) Copy OK
Track 4
Filename E:\Rips\EAC\Andrea Motis - 2017 - Emotional Dance {UCCI-1038} [CD-FLAC]\1.04 - Chega de Saudade.wav
Peak level 94.4 % Extraction speed 7.0 X Track quality 100.0 % Test CRC 40906AFB Copy CRC 40906AFB Accurately ripped (confidence 2) [1AE94293] (AR v2) Copy OK
Track 5
Filename E:\Rips\EAC\Andrea Motis - 2017 - Emotional Dance {UCCI-1038} [CD-FLAC]\1.05 - If You Give Them More Than You Can.wav
Peak level 93.5 % Extraction speed 7.3 X Track quality 100.0 % Test CRC A55F95C3 Copy CRC A55F95C3 Accurately ripped (confidence 2) [2B9D0F86] (AR v2) Copy OK
Track 6
Filename E:\Rips\EAC\Andrea Motis - 2017 - Emotional Dance {UCCI-1038} [CD-FLAC]\1.06 - Never Will I Marry.wav
Peak level 94.2 % Extraction speed 7.4 X Track quality 100.0 % Test CRC 04815A43 Copy CRC 04815A43 Accurately ripped (confidence 2) [20DA4859] (AR v2) Copy OK
Track 7
Filename E:\Rips\EAC\Andrea Motis - 2017 - Emotional Dance {UCCI-1038} [CD-FLAC]\1.07 - Emotional Dance.wav
Peak level 93.5 % Extraction speed 8.0 X Track quality 100.0 % Test CRC 441C2AC9 Copy CRC 441C2AC9 Accurately ripped (confidence 2) [7A28CB9C] (AR v2) Copy OK
Track 8
Filename E:\Rips\EAC\Andrea Motis - 2017 - Emotional Dance {UCCI-1038} [CD-FLAC]\1.08 - You'd Be So Nice To Come Home To.wav
Peak level 100.0 % Extraction speed 8.3 X Track quality 100.0 % Test CRC F276AA5F Copy CRC F276AA5F Accurately ripped (confidence 2) [E250C442] (AR v2) Copy OK
Track 9
Filename E:\Rips\EAC\Andrea Motis - 2017 - Emotional Dance {UCCI-1038} [CD-FLAC]\1.09 - La Gavina.wav
Peak level 94.9 % Extraction speed 8.8 X Track quality 100.0 % Test CRC 7A566A17 Copy CRC 7A566A17 Accurately ripped (confidence 2) [3556F344] (AR v2) Copy OK
Track 10
Filename E:\Rips\EAC\Andrea Motis - 2017 - Emotional Dance {UCCI-1038} [CD-FLAC]\1.10 - Baby Girl.wav
Peak level 93.3 % Extraction speed 9.0 X Track quality 100.0 % Test CRC 00652E4A Copy CRC 00652E4A Accurately ripped (confidence 2) [90769929] (AR v2) Copy OK
Track 11
Filename E:\Rips\EAC\Andrea Motis - 2017 - Emotional Dance {UCCI-1038} [CD-FLAC]\1.11 - Save The Orangutan.wav
Peak level 93.6 % Extraction speed 8.1 X Track quality 99.9 % Test CRC 9E6A98C8 Copy CRC 9E6A98C8 Accurately ripped (confidence 2) [000A3224] (AR v2) Copy OK
Track 12
Filename E:\Rips\EAC\Andrea Motis - 2017 - Emotional Dance {UCCI-1038} [CD-FLAC]\1.12 - I Remember You.wav
Peak level 94.4 % Extraction speed 9.7 X Track quality 100.0 % Test CRC D66E27D5 Copy CRC D66E27D5 Accurately ripped (confidence 2) [BCC891EB] (AR v2) Copy OK
Track 13
Filename E:\Rips\EAC\Andrea Motis - 2017 - Emotional Dance {UCCI-1038} [CD-FLAC]\1.13 - Senor Blues.wav
Peak level 94.8 % Extraction speed 9.6 X Track quality 100.0 % Test CRC 611C7C27 Copy CRC 611C7C27 Accurately ripped (confidence 2) [110E10E6] (AR v2) Copy OK
Track 14
Filename E:\Rips\EAC\Andrea Motis - 2017 - Emotional Dance {UCCI-1038} [CD-FLAC]\1.14 - Luisiana O Els Camps de Coto.wav
Peak level 93.3 % Extraction speed 9.1 X Track quality 99.9 % Test CRC D0AD80FC Copy CRC D0AD80FC Accurately ripped (confidence 2) [F3240A6A] (AR v2) Copy OK
Track 15
Filename E:\Rips\EAC\Andrea Motis - 2017 - Emotional Dance {UCCI-1038} [CD-FLAC]\1.15 - Carinhoso.wav
Peak level 93.9 % Extraction speed 10.0 X Track quality 100.0 % Test CRC 82E433A2 Copy CRC 82E433A2 Accurately ripped (confidence 1) [981C0741] (AR v2) Copy OK
All tracks accurately ripped
No errors occurred
End of status report
==== Log checksum 07D18C2BC88F645CF8E3439413EBBD85462C54D23466CB6B4F77D116EAF74BD4 ====

Содержание индексной карты (.CUE)

REM GENRE JazzREM DATE 2017REM DISCID CD0F850FREM COMMENT "ExactAudioCopy v1.3"CATALOG 0602557347692PERFORMER "Andrea Motis"TITLE "Emotional Dance"FILE "01 - He's Funny That Way.wav" WAVE  TRACK 01 AUDIO    TITLE "He's Funny That Way"    PERFORMER "Andrea Motis"    ISRC FRUM71613185    INDEX 01 00:00:00FILE "02 - I Didn't Tell Them Why.wav" WAVE  TRACK 02 AUDIO    TITLE "I Didn't Tell Them Why"    PERFORMER "Andrea Motis"    ISRC FRUM71613224    INDEX 01 00:00:00FILE "03 - Matilda.wav" WAVE  TRACK 03 AUDIO    TITLE "Matilda"    PERFORMER "Andrea Motis"    ISRC FRUM71613225    INDEX 01 00:00:00FILE "04 - Chega de Saudade.wav" WAVE  TRACK 04 AUDIO    TITLE "Chega de Saudade"    PERFORMER "Andrea Motis"    ISRC FRUM71613226    INDEX 01 00:00:00FILE "05 - If You Give Them More Than You Can.wav" WAVE  TRACK 05 AUDIO    TITLE "If You Give Them More Than You Can"    PERFORMER "Andrea Motis"    ISRC FRUM71613187    INDEX 01 00:00:00FILE "06 - Never Will I Marry.wav" WAVE  TRACK 06 AUDIO    TITLE "Never Will I Marry"    PERFORMER "Andrea Motis"    ISRC FRUM71613229    INDEX 01 00:00:00FILE "07 - An Emotional Dance.wav" WAVE  TRACK 07 AUDIO    TITLE "An Emotional Dance"    PERFORMER "Andrea Motis"    ISRC FRUM71613229    INDEX 01 00:00:00FILE "08 - You'd Be So Nice to Come Home To.wav" WAVE  TRACK 08 AUDIO    TITLE "You'd Be So Nice to Come Home To"    PERFORMER "Andrea Motis"    ISRC FRUM71613227    INDEX 01 00:00:00FILE "09 - La Gavina.wav" WAVE  TRACK 09 AUDIO    TITLE "La Gavina"    PERFORMER "Andrea Motis"    ISRC FRUM71613228    INDEX 01 00:00:00FILE "10 - Baby Girl.wav" WAVE  TRACK 10 AUDIO    TITLE "Baby Girl"    PERFORMER "Andrea Motis"    ISRC FRUM71613228    INDEX 01 00:00:00FILE "11 - Save the Orangutan.wav" WAVE  TRACK 11 AUDIO    TITLE "Save the Orangutan"    PERFORMER "Andrea Motis"    ISRC FRUM71613230    INDEX 01 00:00:00FILE "12 - I Remember You.wav" WAVE  TRACK 12 AUDIO    TITLE "I Remember You"    PERFORMER "Andrea Motis"    ISRC FRUM71613186    INDEX 01 00:00:00FILE "13 - Senor Blues.wav" WAVE  TRACK 13 AUDIO    TITLE "Senor Blues"    PERFORMER "Andrea Motis"    ISRC FRUM71613231    INDEX 01 00:00:00FILE "14 - Luisiana o Els Camps de Coto.wav" WAVE  TRACK 14 AUDIO    TITLE "Luisiana o Els Camps de Coto"    PERFORMER "Andrea Motis"    ISRC FRUM71613232    INDEX 01 00:00:00FILE "15 - Carinhoso.wav" WAVE  TRACK 15 AUDIO    TITLE "Carinhoso"    PERFORMER "Andrea Motis"    ISRC FRUM71613331    INDEX 01 00:00:00

Отчет CUETools

[CUETools log; Date: 01.09.2018 12:57:43; Version: 2.1.5][CTDB TOCID: ABpZhlBXOMEP20r.CFye21s7J3A-] found.Track | CTDB Status  1   | (10/10) Accurately ripped  2   | (10/10) Accurately ripped  3   | (10/10) Accurately ripped  4   | (10/10) Accurately ripped  5   | (10/10) Accurately ripped  6   | (10/10) Accurately ripped  7   | (10/10) Accurately ripped  8   | (10/10) Accurately ripped  9   | (10/10) Accurately ripped 10   | (10/10) Accurately ripped 11   | (10/10) Accurately ripped 12   | (10/10) Accurately ripped 13   | (10/10) Accurately ripped 14   | (10/10) Accurately ripped 15   | ( 8/10) Accurately ripped, or (1/10) differs in 2 samples @03:47:03[AccurateRip ID: 00254326-01a43c8b-cd0f850f] found.Track   [  CRC   |   V2   ] Status 01     [14d7fdeb|c6ffe603] (0+2/2) Accurately ripped 02     [1007dc7e|e845c9c0] (0+2/2) Accurately ripped 03     [c93c1e95|37fbd46b] (0+2/2) Accurately ripped 04     [39b1aab1|1ae94293] (0+2/2) Accurately ripped 05     [3a5ef17f|2b9d0f86] (0+2/2) Accurately ripped 06     [663cb400|20da4859] (0+2/2) Accurately ripped 07     [5075ac73|7a28cb9c] (0+2/2) Accurately ripped 08     [ae7647cf|e250c442] (0+2/2) Accurately ripped 09     [e3ce980e|3556f344] (0+2/2) Accurately ripped 10     [41b21560|90769929] (0+2/2) Accurately ripped 11     [02ae1794|000a3224] (0+2/2) Accurately ripped 12     [546370e6|bcc891eb] (0+2/2) Accurately ripped 13     [e2886bea|110e10e6] (0+2/2) Accurately ripped 14     [86eb71cc|f3240a6a] (0+2/2) Accurately ripped 15     [5e00a868|981c0741] (0+1/2) Accurately ripped
Track Peak [ CRC32 ] [W/O NULL] [ LOG ] -- 100,0 [6C397978] [7E681753] 01 100,0 [B38D740E] [4EB04945] CRC32 02 93,4 [E6DB6B76] [0124CAA7] CRC32 03 93,2 [DFF7D2D3] [75B9F2BE] CRC32 04 94,4 [40906AFB] [EDF75B36] CRC32 05 93,5 [A55F95C3] [F958128B] CRC32 06 94,2 [04815A43] [859EF147] CRC32 07 93,5 [441C2AC9] [1ED3077D] CRC32 08 100,0 [F276AA5F] [B53DC56C] CRC32 09 94,9 [7A566A17] [273F88BD] CRC32 10 93,3 [00652E4A] [144406D3] CRC32 11 93,6 [9E6A98C8] [D6E4E396] CRC32 12 94,4 [D66E27D5] [E9A50F8E] CRC32 13 94,8 [611C7C27] [5DD961C9] CRC32 14 93,3 [D0AD80FC] [C7A3DB0F] CRC32 15 93,9 [82E433A2] [6D7EBE60] CRC32

Об альбоме (сборнике)

After recording six acclaimed albums with bassist Joan Chamorro, Barcelona-based trumpeter, singer and composer Andrea Motis makes her solo debut on Impulse! Records with Emotional Dance. The astonishing accord that she’s cultivated with Chamorro during the past seven years is firmly intact on Emotional Dance. The sterling performances features him as well as pianist Ignasi Terraza, drummer Esteve Pi, guitarist Josep Traver as the core ensemble. Like with Chamorro, Motis has recorded and toured consistently with these musicians.
Chamorro coproduced Emotional Dance with Brian Bacchus and Jay Newland. Through Bacchus and Universal Records’ A&R director Jean-Philippe Allard’s sage suggestion, Motis augmented the personnel with a handful of U.S.-based musicians – vibraphonist Warren Wolf, accordionist Gil Goldstein, baritone saxophonist Scott Robinson, percussionist Café Da Silva. Three tunes also features the famed American tenor saxophonist Joel Frahm, who’d worked with Motis and Chamorro before. “We invited [Joel] to play with us in Barcelona in 2016. He was so amazing that we knew we wanted him for this album,” Motis enthuses.
Even though, Motis is only 21-years-old, she displays a mature musicality beyond her years. That’s because she began playing the trumpet at age seven; three years later she began studying jazz at the Municipal School of Music of Sant Andreu under Chamorro, who soon after recruited her for his band while she was still a teenager. While at the school, she was also a member of the Sant Andreu Jazz Band for nine years with which she recorded eight discs and played with such acclaimed musicians as trombonist Wycliffe Gordon, saxophonist Jesse Davis, clarinetist Bobby Gordon, and saxophonist Dick Oatts, among others. In addition to trumpet, Motis plays alto saxophone. But it was with Chamorro’s band that she began singing. “The trumpet will always be my first instrument,” Motis says when asked if she likes being a singer or an instrumentalist the most. “Playing the trumpet is like mediating; it’s such a part of my life. But I never want to choose just one side of my artistic sides because I love doing them all.”
On Emotional Dance, Motis’ singing mostly takes center stage. She possesses an alluring, supple alto. With its subtle vibrato and her succinct phrasing, Motis’ singing has drawn comparisons to such stylists as Billie Holiday and Norah Jones. Her vocal prowess reveals itself immediately on Charles Daniels and Richard Whiting’s classic, “He’s Funny That Way,” which opens the disc. Perhaps, it’s no coincidence that the jazz standard has long been associated with Lady Day; Motis and her ensemble certainly do the composition justice by underscoring it with a quintessential swing-era shuffle that paves the way for an absorbing solo from Robinson. Motis follows his lead by blowing a delightful trumpet solo that accentuates her citrus tone and her assured sense of melodic swing.
Motis sees Emotional Dance as an extension and evolution of her work with Chamorro. Like their previous efforts, the new album contains it fair share of jazz standards. In addition to “He’s Funny That Way,” Motis delivers captivating renditions of Franck Loesser’s “Never Will I Marry,” Cole Porter’s “You’d Be So Nice To Come Home To,” Eddie Jefferson’s “Baby Girl,” Johnny Mercer’s “I Remember You,” Horace Silver’s “Señor Blues,” and Antonio Carlos Jobim and Vinicius De Moraes’ “Chega de Saudade.”
Emotional Dance reveals some of Motis’ artistic growth with the presence of Frederico Sires Puig’s “La Gavina,” Els Amics de les Arts’ “Louisiana O Els Camps De Cotó,” and Perico Sambeat’s “Matlida.” On all three tunes Motis sings in Catalan – a first for her on disc. The latter tune even features Sambeat on a billowing soprano saxophone accompaniment and solo.
Also for the first time, Motis exhibits her gifts as composer. She penned three of Emotional Dance’s 13 songs. The first song she composed for the disc was “If You Give More Than You Can,” a poignant ballad containing heartfelt lyrics about being overwhelmed with multiple responsibilities. Her ebullient, “I Didn’t Tell Them Why” shows Motis’ friskier side as she sings about keeping a blossoming romance on the down low, while her swaggering hard-bop instrumental, “Save the Orangutan” best illustrates her command and improvisation heft on the trumpet as she shares the frontline with Frahm.
As for the sparkling title track, Terraza wrote it several years ago as an instrumental. Motis wasn’t even aware of Terraza’s compositional abilities until she heard the song on the radio. “We thought that the title of that song was very representative of the feeling that we had during the making of this first album for Impulse! Records,” Motis says. “The title conveys all the positive changes and new directions we’ve taken with my music while acknowledging that things are moving forward in the right direction.”

Состав

Andrea Motis - vocals, trumpet
Joan Chamorro - double bass, tenor saxophone, flute, vocals
Ignasi Terraza - piano
Josep Traver - guitar, electric guitar, vocals
Esteve Pi - drums
Scott Robinson - baritone saxophone
Joel Frahm - tenor saxophone
Perico Sambeat - soprano saxophone, alto saxophone
Gil Goldstein - accordion
Warren Wolf - marimba, vibes
Cafe da Silva - percussion
Recorded at Carriage Studios, CT on March 25-30, 2016.

If you like the topic, please click share to help develop our site.

To download the file disable ad blocking, and reload the page.

disable adblock How to disable ad blocking?

Download by magnet link 390 MB Download Torrent

Login using:

Similar topics



   
Current time is: 21-Feb 20:53 :: All times are UTC + 3