Isao Suzuki Group - 1998, New
Жанр: Fusion, Contemporary Jazz, Free Jazz
Носитель: CD
Страна-производитель диска (релиза): Япония
Год издания: 1998
Издатель (лейбл): Aketa's Disk/Platz
Номер по каталогу: PCLP-75 (AD-57CD)
Аудиокодек: FLAC (*.flac)
Тип рипа: tracks+.cue
Битрейт аудио: lossless
Продолжительность: 69:58
Источник (релизер): mvns
Наличие сканов в содержимом раздачи: нет
Треклист:
01. Alone Together (Schwartz) - 9:57
02. Blues for Isao (Kato) - 12:19
03. Jump Monk Jump (Kato) - 14:10
04. Yesterday (Lennon-McCartney) - 8:41
05. 1998 All Open (Suzuki) - 21:09
06. Summertime (Gershwin) - 3:42
Состав:
Isao Suzuki - bass
Takayuki Kato - guitar
Yoriyuki Harada - piano
Shota Koyama - drums
Recorded live at Aketa no Mise, Tokyo on June 6 (#1,5,6) and July 3 (#2-4), 1998.

Лог создания рипа

X Lossless Decoder version 20170729 (150.3)
XLD extraction logfile from 2018-04-21 21:55:47 -0700
Isao Suzuki Group (鈴木勲グループ) / 1998, New
Used drive : TSSTcorp CDDVDW SE-218CB (revision MF00)Media type : Pressed CD
Ripper mode : XLD Secure RipperDisable audio cache : OK for the drive with a cache less than 1375KiBMake use of C2 pointers : NORead offset correction : 6Max retry count : 100Gap status : Analyzed, Appended (except HTOA)
TOC of the extracted CD Track | Start | Length | Start sector | End sector --------------------------------------------------------- 1 | 00:00:00 | 09:57:15 | 0 | 44789 2 | 09:57:15 | 12:19:15 | 44790 | 100229 3 | 22:16:30 | 14:10:35 | 100230 | 164014 4 | 36:26:65 | 08:41:00 | 164015 | 203089 5 | 45:07:65 | 21:09:20 | 203090 | 298284 6 | 66:17:10 | 03:41:73 | 298285 | 314932
AccurateRip Summary (DiscID: 00112bdf-005c6856-69106706) Track 01 : OK (v2, confidence 1/1) Track 02 : OK (v2, confidence 1/1) Track 03 : OK (v2, confidence 1/1) Track 04 : OK (v2, confidence 1/1) Track 05 : OK (v2, confidence 1/1) Track 06 : OK (v2, confidence 1/1) ->All tracks accurately ripped.
All Tracks Album gain : 1.91 dB Peak : 1.000000 Statistics Read error : 0 Jitter error (maybe fixed) : 0 Retry sector count : 0 Damaged sector count : 0
Track 01 Filename : /Volumes/Multimedia/XLD/Isao Suzuki Group (鈴木勲グループ) - (1998) 1998, New [FLAC]/01 - Isao Suzuki Group (鈴木勲グループ) - Alone Together.flac Pre-gap length : 00:02:00
Track gain : 10.52 dB Peak : 0.996094 CRC32 hash (test run) : F798FF21 CRC32 hash : F798FF21 CRC32 hash (skip zero) : 22F65030 AccurateRip v1 signature : AF64927B AccurateRip v2 signature : 483D2189 ->Accurately ripped (v2, confidence 1/1) Statistics Read error : 0 Jitter error (maybe fixed) : 0 Retry sector count : 0 Damaged sector count : 0
Track 02 Filename : /Volumes/Multimedia/XLD/Isao Suzuki Group (鈴木勲グループ) - (1998) 1998, New [FLAC]/02 - Isao Suzuki Group (鈴木勲グループ) - Blues For Isao.flac Pre-gap length : 00:01:40
Track gain : 0.78 dB Peak : 1.000000 CRC32 hash (test run) : FCBB475C CRC32 hash : FCBB475C CRC32 hash (skip zero) : EA67C0F7 AccurateRip v1 signature : 86A3AE89 AccurateRip v2 signature : 5D0019BE ->Accurately ripped (v2, confidence 1/1) Statistics Read error : 0 Jitter error (maybe fixed) : 0 Retry sector count : 0 Damaged sector count : 0
Track 03 Filename : /Volumes/Multimedia/XLD/Isao Suzuki Group (鈴木勲グループ) - (1998) 1998, New [FLAC]/03 - Isao Suzuki Group (鈴木勲グループ) - Jump Monk Jump.flac Pre-gap length : 00:01:65
Track gain : 0.70 dB Peak : 0.981720 CRC32 hash (test run) : 11EA74BC CRC32 hash : 11EA74BC CRC32 hash (skip zero) : 6F616889 AccurateRip v1 signature : 0CDEB627 AccurateRip v2 signature : D8D17B1E ->Accurately ripped (v2, confidence 1/1) Statistics Read error : 0 Jitter error (maybe fixed) : 0 Retry sector count : 0 Damaged sector count : 0
Track 04 Filename : /Volumes/Multimedia/XLD/Isao Suzuki Group (鈴木勲グループ) - (1998) 1998, New [FLAC]/04 - Isao Suzuki Group (鈴木勲グループ) - Yesterday.flac Pre-gap length : 00:01:72
Track gain : 8.06 dB Peak : 0.977936 CRC32 hash (test run) : AB9B753A CRC32 hash : AB9B753A CRC32 hash (skip zero) : E681A3DC AccurateRip v1 signature : 5674A2AA AccurateRip v2 signature : 652A4C52 ->Accurately ripped (v2, confidence 1/1) Statistics Read error : 0 Jitter error (maybe fixed) : 0 Retry sector count : 0 Damaged sector count : 0
Track 05 Filename : /Volumes/Multimedia/XLD/Isao Suzuki Group (鈴木勲グループ) - (1998) 1998, New [FLAC]/05 - Isao Suzuki Group (鈴木勲グループ) - 1998 All Open.flac Pre-gap length : 00:03:65
Track gain : 3.23 dB Peak : 1.000000 CRC32 hash (test run) : 47A7307A CRC32 hash : 47A7307A CRC32 hash (skip zero) : FBCE2300 AccurateRip v1 signature : B27E1211 AccurateRip v2 signature : B7951E77 ->Accurately ripped (v2, confidence 1/1) Statistics Read error : 0 Jitter error (maybe fixed) : 0 Retry sector count : 0 Damaged sector count : 0
Track 06 Filename : /Volumes/Multimedia/XLD/Isao Suzuki Group (鈴木勲グループ) - (1998) 1998, New [FLAC]/06 - Isao Suzuki Group (鈴木勲グループ) - Summertime.flac
Track gain : 4.57 dB Peak : 0.901337 CRC32 hash (test run) : 2CD5E538 CRC32 hash : 2CD5E538 CRC32 hash (skip zero) : 8907063B AccurateRip v1 signature : 5AF2E443 AccurateRip v2 signature : B03B2B06 ->Accurately ripped (v2, confidence 1/1) Statistics Read error : 0 Jitter error (maybe fixed) : 0 Retry sector count : 0 Damaged sector count : 0
No errors occurred
End of status report
-----BEGIN XLD SIGNATURE-----8t2iL1wCGFpMN9VZnZrpVwOfxG.HJu_OYMie_nA72T7toyyeu2mlXh4Fqoi6NBj7nMCHr1K0j0c7fnkvkjzQhqWjhW5x5h.qYd6t4Di-----END XLD SIGNATURE-----

Содержание индексной карты (.CUE)

TITLE "1998, New"PERFORMER "Isao Suzuki"REM GENRE "Jazz"REM DATE "1998"REM DISCID 69106706REM REPLAYGAIN_ALBUM_GAIN 1.91 dBREM REPLAYGAIN_ALBUM_PEAK 1.000000FILE "01 - Alone Together.flac" WAVE  TRACK 01 AUDIO    TITLE "Alone Together"    REM REPLAYGAIN_TRACK_GAIN 10.52 dB    REM REPLAYGAIN_TRACK_PEAK 0.996094    INDEX 01 00:00:00  TRACK 02 AUDIO    TITLE "Blues for Isao"    REM REPLAYGAIN_TRACK_GAIN 0.78 dB    REM REPLAYGAIN_TRACK_PEAK 1.000000    INDEX 00 09:55:50FILE "02 - Blues for Isao.flac" WAVE    INDEX 01 00:00:00  TRACK 03 AUDIO    TITLE "Jump Monk Jump"    REM REPLAYGAIN_TRACK_GAIN 0.70 dB    REM REPLAYGAIN_TRACK_PEAK 0.981720    INDEX 00 12:17:25FILE "03 - Jump Monk Jump.flac" WAVE    INDEX 01 00:00:00  TRACK 04 AUDIO    TITLE "Yesterday"    REM REPLAYGAIN_TRACK_GAIN 8.06 dB    REM REPLAYGAIN_TRACK_PEAK 0.977936    INDEX 00 14:08:38FILE "04 - Yesterday.flac" WAVE    INDEX 01 00:00:00  TRACK 05 AUDIO    TITLE "1998 All Open"    REM REPLAYGAIN_TRACK_GAIN 3.23 dB    REM REPLAYGAIN_TRACK_PEAK 1.000000    INDEX 00 08:37:10FILE "05 - 1998 All Open.flac" WAVE    INDEX 01 00:00:00FILE "06 - Summertime.flac" WAVE  TRACK 06 AUDIO    TITLE "Summertime"    REM REPLAYGAIN_TRACK_GAIN 4.57 dB    REM REPLAYGAIN_TRACK_PEAK 0.901337    INDEX 01 00:00:00

If you like the topic, please click share to help develop our site.

To download the file disable ad blocking, and reload the page.

disable adblock How to disable ad blocking?

Download by magnet link 299 MB Download Torrent

Login using:

Similar topics



   
Current time is: 17-Feb 16:45 :: All times are UTC + 3