Clifford Brown - Clifford Brown's Finest Hour
Жанр: Bop, Hard Bop
Носитель: CD
Страна-производитель диска (релиза): США
Год издания: 2000
Издатель (лейбл): Verve Records
Номер по каталогу: 314 543 602-2
Аудиокодек: FLAC (*.flac)
Тип рипа: tracks+.cue
Битрейт аудио: lossless
Продолжительность: 59:03
Источник (релизер): holdover
Наличие сканов в содержимом раздачи: back
Треклист:
01. Jordu (4:03)
02. I Get a Kick Out of You (7:42)
03. Delilah (8:06)
04. Stardust (3:01)
05. If I Love Again (2:58)
06. The Scene Is Clean (6:12)
07. Cherokee (5:47)
08. Joy Spring (6:51)
09. Yesterdays (6:03)
10. Daahoud (4:04)
11. Love Is a Many Splendored Thing (4:16)

Лог создания рипа

X Lossless Decoder version 20170729 (150.3)
XLD extraction logfile from 2018-06-01 18:47:31 -0700
Clifford Brown / Clifford Brown's Finest Hour
Used drive : HL-DT-ST DVDRW GS41N (revision UA04)Media type : Pressed CD
Ripper mode : XLD Secure RipperDisable audio cache : OK for the drive with a cache less than 1375KiBMake use of C2 pointers : NORead offset correction : 6Max retry count : 20Gap status : Analyzed, Appended
TOC of the extracted CD Track | Start | Length | Start sector | End sector --------------------------------------------------------- 1 | 00:00:00 | 04:03:12 | 0 | 18236 2 | 04:03:12 | 07:42:15 | 18237 | 52901 3 | 11:45:27 | 08:06:05 | 52902 | 89356 4 | 19:51:32 | 03:00:50 | 89357 | 102906 5 | 22:52:07 | 02:57:48 | 102907 | 116229 6 | 25:49:55 | 06:11:40 | 116230 | 144094 7 | 32:01:20 | 05:47:20 | 144095 | 170139 8 | 37:48:40 | 06:50:47 | 170140 | 200936 9 | 44:39:12 | 06:03:10 | 200937 | 228171 10 | 50:42:22 | 04:04:28 | 228172 | 246499 11 | 54:46:50 | 04:16:27 | 246500 | 265726
AccurateRip Summary (DiscID: 0018f384-00d7868e-8f0dd70b) Track 01 : OK (v1+v2, confidence 17/20) Track 02 : OK (v1+v2, confidence 17/20) Track 03 : OK (v1+v2, confidence 17/20) Track 04 : OK (v1+v2, confidence 17/19) Track 05 : OK (v1+v2, confidence 16/19) Track 06 : OK (v1+v2, confidence 16/19) Track 07 : OK (v1+v2, confidence 17/20) Track 08 : OK (v1+v2, confidence 17/20) Track 09 : OK (v1+v2, confidence 17/20) Track 10 : OK (v1+v2, confidence 16/19) Track 11 : OK (v1+v2, confidence 17/20) ->All tracks accurately ripped.
All Tracks Album gain : -4.55 dB Peak : 0.999969 Statistics Read error : 0 Jitter error (maybe fixed) : 0 Retry sector count : 0 Damaged sector count : 0
Track 01 Filename : /Users/kallen/Music/Clifford Brown - 2000 - Clifford Brown's Finest Hour [FLAC]/01 Jordu.flac Pre-gap length : 00:02:00
Track gain : -4.25 dB Peak : 0.999939 CRC32 hash (test run) : 0043F15E CRC32 hash : 0043F15E CRC32 hash (skip zero) : C51A8461 AccurateRip v1 signature : E70C8551 AccurateRip v2 signature : FF1C368B ->Accurately ripped (v1+v2, confidence 10+7/20) Statistics Read error : 0 Jitter error (maybe fixed) : 0 Retry sector count : 0 Damaged sector count : 0
Track 02 Filename : /Users/kallen/Music/Clifford Brown - 2000 - Clifford Brown's Finest Hour [FLAC]/02 I Get a Kick Out of You.flac Pre-gap length : 00:02:55
Track gain : -4.34 dB Peak : 0.794373 CRC32 hash (test run) : 9ED77AC4 CRC32 hash : 9ED77AC4 CRC32 hash (skip zero) : 746B1E21 AccurateRip v1 signature : 193FA398 AccurateRip v2 signature : 850746C8 ->Accurately ripped (v1+v2, confidence 10+7/20) Statistics Read error : 0 Jitter error (maybe fixed) : 0 Retry sector count : 0 Damaged sector count : 0
Track 03 Filename : /Users/kallen/Music/Clifford Brown - 2000 - Clifford Brown's Finest Hour [FLAC]/03 Delilah.flac Pre-gap length : 00:02:55
Track gain : -2.78 dB Peak : 0.979004 CRC32 hash (test run) : 64C76E29 CRC32 hash : 64C76E29 CRC32 hash (skip zero) : CC13F2D7 AccurateRip v1 signature : BEA86267 AccurateRip v2 signature : 5DA3A1C2 ->Accurately ripped (v1+v2, confidence 10+7/20) Statistics Read error : 0 Jitter error (maybe fixed) : 0 Retry sector count : 0 Damaged sector count : 0
Track 04 Filename : /Users/kallen/Music/Clifford Brown - 2000 - Clifford Brown's Finest Hour [FLAC]/04 Stardust.flac Pre-gap length : 00:02:55
Track gain : -7.08 dB Peak : 0.999969 CRC32 hash (test run) : 3C7B00D4 CRC32 hash : 3C7B00D4 CRC32 hash (skip zero) : 5B498C3B AccurateRip v1 signature : 7A961AEB AccurateRip v2 signature : 3F3E0176 ->Accurately ripped (v1+v2, confidence 10+7/19) Statistics Read error : 0 Jitter error (maybe fixed) : 0 Retry sector count : 0 Damaged sector count : 0
Track 05 Filename : /Users/kallen/Music/Clifford Brown - 2000 - Clifford Brown's Finest Hour [FLAC]/05 If I Love Again.flac Pre-gap length : 00:02:55
Track gain : -4.01 dB Peak : 0.785278 CRC32 hash (test run) : 7DB20284 CRC32 hash : 7DB20284 CRC32 hash (skip zero) : 7DAE1FC3 AccurateRip v1 signature : A399412C AccurateRip v2 signature : D25728E6 ->Accurately ripped (v1+v2, confidence 10+6/19) Statistics Read error : 0 Jitter error (maybe fixed) : 0 Retry sector count : 0 Damaged sector count : 0
Track 06 Filename : /Users/kallen/Music/Clifford Brown - 2000 - Clifford Brown's Finest Hour [FLAC]/06 The Scene Is Clean.flac Pre-gap length : 00:02:55
Track gain : -5.93 dB Peak : 0.999969 CRC32 hash (test run) : 244A6ED8 CRC32 hash : 244A6ED8 CRC32 hash (skip zero) : 0B846556 AccurateRip v1 signature : BBBE8B38 AccurateRip v2 signature : 61765A42 ->Accurately ripped (v1+v2, confidence 10+6/19) Statistics Read error : 0 Jitter error (maybe fixed) : 0 Retry sector count : 0 Damaged sector count : 0
Track 07 Filename : /Users/kallen/Music/Clifford Brown - 2000 - Clifford Brown's Finest Hour [FLAC]/07 Cherokee.flac Pre-gap length : 00:02:55
Track gain : -3.89 dB Peak : 0.728119 CRC32 hash (test run) : EC055434 CRC32 hash : EC055434 CRC32 hash (skip zero) : 3CC7D107 AccurateRip v1 signature : 8134F12D AccurateRip v2 signature : 2FBAD978 ->Accurately ripped (v1+v2, confidence 10+7/20) Statistics Read error : 0 Jitter error (maybe fixed) : 0 Retry sector count : 0 Damaged sector count : 0
Track 08 Filename : /Users/kallen/Music/Clifford Brown - 2000 - Clifford Brown's Finest Hour [FLAC]/08 Joy Spring.flac Pre-gap length : 00:02:53
Track gain : -3.41 dB Peak : 0.996765 CRC32 hash (test run) : 49CB915B CRC32 hash : 49CB915B CRC32 hash (skip zero) : FEAD8F16 AccurateRip v1 signature : A0F50BA0 AccurateRip v2 signature : F0371C43 ->Accurately ripped (v1+v2, confidence 10+7/20) Statistics Read error : 0 Jitter error (maybe fixed) : 0 Retry sector count : 0 Damaged sector count : 0
Track 09 Filename : /Users/kallen/Music/Clifford Brown - 2000 - Clifford Brown's Finest Hour [FLAC]/09 Yesterdays.flac Pre-gap length : 00:02:55
Track gain : -4.35 dB Peak : 0.999969 CRC32 hash (test run) : 5E95C501 CRC32 hash : 5E95C501 CRC32 hash (skip zero) : 01F1B898 AccurateRip v1 signature : ABE11516 AccurateRip v2 signature : 64ADD10F ->Accurately ripped (v1+v2, confidence 10+7/20) Statistics Read error : 0 Jitter error (maybe fixed) : 0 Retry sector count : 0 Damaged sector count : 0
Track 10 Filename : /Users/kallen/Music/Clifford Brown - 2000 - Clifford Brown's Finest Hour [FLAC]/10 Daahoud.flac Pre-gap length : 00:02:55
Track gain : -3.50 dB Peak : 0.938904 CRC32 hash (test run) : 80A9E5B2 CRC32 hash : 80A9E5B2 CRC32 hash (skip zero) : 02FD7E5C AccurateRip v1 signature : A5F9E3ED AccurateRip v2 signature : A49459DC ->Accurately ripped (v1+v2, confidence 10+6/19) Statistics Read error : 0 Jitter error (maybe fixed) : 0 Retry sector count : 0 Damaged sector count : 0
Track 11 Filename : /Users/kallen/Music/Clifford Brown - 2000 - Clifford Brown's Finest Hour [FLAC]/11 Love Is a Many Splendored Thing.flac Pre-gap length : 00:02:55
Track gain : -4.44 dB Peak : 0.999969 CRC32 hash (test run) : 06F09383 CRC32 hash : 06F09383 CRC32 hash (skip zero) : 0C446C2E AccurateRip v1 signature : 82789802 AccurateRip v2 signature : 052DC985 ->Accurately ripped (v1+v2, confidence 10+7/20) Statistics Read error : 0 Jitter error (maybe fixed) : 0 Retry sector count : 0 Damaged sector count : 0
No errors occurred
End of status report
-----BEGIN XLD SIGNATURE-----l8IybT4EkM0M1PkdTRPGCXgGZGK10rPMGSUhca_dMnYelwYFv0I31Ra9V5ZP3AlpDvGamnjAbx2IxrIPcqTixXRtPSlqam8qTQkMloK-----END XLD SIGNATURE-----

Содержание индексной карты (.CUE)

TITLE "Clifford Brown's Finest Hour"PERFORMER "Clifford Brown"CATALOG 0731454360227REM GENRE "Jazz"REM DATE "2000"REM DISCID 8F0DD70BREM REPLAYGAIN_ALBUM_GAIN -4.55 dBREM REPLAYGAIN_ALBUM_PEAK 0.999969FILE "01 - Jordu.flac" WAVE  TRACK 01 AUDIO    TITLE "Jordu"    ISRC USPR35400114    REM REPLAYGAIN_TRACK_GAIN -4.25 dB    REM REPLAYGAIN_TRACK_PEAK 0.999939    INDEX 01 00:00:00  TRACK 02 AUDIO    TITLE "I Get a Kick Out of You"    ISRC USPR35412078    REM REPLAYGAIN_TRACK_GAIN -4.34 dB    REM REPLAYGAIN_TRACK_PEAK 0.794373    INDEX 00 04:00:32FILE "02 - I Get a Kick Out of You.flac" WAVE    INDEX 01 00:00:00  TRACK 03 AUDIO    TITLE "Delilah"    ISRC USPR35412079    REM REPLAYGAIN_TRACK_GAIN -2.78 dB    REM REPLAYGAIN_TRACK_PEAK 0.979004    INDEX 00 07:39:35FILE "03 - Delilah.flac" WAVE    INDEX 01 00:00:00  TRACK 04 AUDIO    TITLE "Stardust"    ISRC USPR35502396    REM REPLAYGAIN_TRACK_GAIN -7.08 dB    REM REPLAYGAIN_TRACK_PEAK 0.999969    INDEX 00 08:03:25FILE "04 - Stardust.flac" WAVE    INDEX 01 00:00:00  TRACK 05 AUDIO    TITLE "If I Love Again"    ISRC USPR35512066    REM REPLAYGAIN_TRACK_GAIN -4.01 dB    REM REPLAYGAIN_TRACK_PEAK 0.785278    INDEX 00 02:57:70FILE "05 - If I Love Again.flac" WAVE    INDEX 01 00:00:00  TRACK 06 AUDIO    TITLE "The Scene Is Clean"    ISRC USGR10000564    REM REPLAYGAIN_TRACK_GAIN -5.93 dB    REM REPLAYGAIN_TRACK_PEAK 0.999969    INDEX 00 02:54:68FILE "06 - The Scene Is Clean.flac" WAVE    INDEX 01 00:00:00  TRACK 07 AUDIO    TITLE "Cherokee"    ISRC USPR35502392    REM REPLAYGAIN_TRACK_GAIN -3.89 dB    REM REPLAYGAIN_TRACK_PEAK 0.728119    INDEX 00 06:08:60FILE "07 - Cherokee.flac" WAVE    INDEX 01 00:00:00  TRACK 08 AUDIO    TITLE "Joy Spring"    ISRC USPR35400109    REM REPLAYGAIN_TRACK_GAIN -3.41 dB    REM REPLAYGAIN_TRACK_PEAK 0.996765    INDEX 00 05:44:42FILE "08 - Joy Spring.flac" WAVE    INDEX 01 00:00:00  TRACK 09 AUDIO    TITLE "Yesterdays"    ISRC USPR35400011    REM REPLAYGAIN_TRACK_GAIN -4.35 dB    REM REPLAYGAIN_TRACK_PEAK 0.999969    INDEX 00 06:47:67FILE "09 - Yesterdays.flac" WAVE    INDEX 01 00:00:00  TRACK 10 AUDIO    TITLE "Daahoud"    ISRC USPR35400112    REM REPLAYGAIN_TRACK_GAIN -3.50 dB    REM REPLAYGAIN_TRACK_PEAK 0.938904    INDEX 00 06:00:30FILE "10 - Daahoud.flac" WAVE    INDEX 01 00:00:00  TRACK 11 AUDIO    TITLE "Love Is a Many Splendored Thing"    ISRC USGR10000565    REM REPLAYGAIN_TRACK_GAIN -4.44 dB    REM REPLAYGAIN_TRACK_PEAK 0.999969    INDEX 00 04:01:48FILE "11 - Love Is a Many Splendored Thing.flac" WAVE    INDEX 01 00:00:00

Отчет CUETools

[CUETools log; Date: 01.09.2018 17:44:41; Version: 2.1.5][CTDB TOCID: c2drcxQzbmL0tShfeNF9A0o65cg-] found.Track | CTDB Status  1   | (11/15) Accurately ripped  2   | (11/15) Accurately ripped  3   | (11/15) Accurately ripped  4   | (11/15) Accurately ripped  5   | (11/15) Accurately ripped  6   | (11/15) Accurately ripped  7   | (11/15) Accurately ripped  8   | (11/15) Accurately ripped  9   | (11/15) Accurately ripped 10   | (11/15) Accurately ripped 11   | (10/15) Accurately ripped[AccurateRip ID: 0018f384-00d7868e-8f0dd70b] found.Track   [  CRC   |   V2   ] Status 01     [e70c8551|ff1c368b] (10+07/20) Accurately ripped 02     [193fa398|850746c8] (10+07/20) Accurately ripped 03     [bea86267|5da3a1c2] (10+07/20) Accurately ripped 04     [7a961aeb|3f3e0176] (10+07/19) Accurately ripped 05     [a399412c|d25728e6] (10+06/19) Accurately ripped 06     [bbbe8b38|61765a42] (10+06/19) Accurately ripped 07     [8134f12d|2fbad978] (10+07/20) Accurately ripped 08     [a0f50ba0|f0371c43] (10+07/20) Accurately ripped 09     [abe11516|64add10f] (10+07/20) Accurately ripped 10     [a5f9e3ed|a49459dc] (10+06/19) Accurately ripped 11     [82789802|052dc985] (10+07/20) Accurately ripped
Track Peak [ CRC32 ] [W/O NULL] -- 99,9 [6D2992B4] [AD464239] 01 99,9 [0043F15E] [C51A8461] 02 79,4 [9ED77AC4] [746B1E21] 03 97,9 [64C76E29] [CC13F2D7] 04 99,9 [3C7B00D4] [5B498C3B] 05 78,5 [7DB20284] [7DAE1FC3] 06 99,9 [244A6ED8] [0B846556] 07 72,8 [EC055434] [3CC7D107] 08 99,6 [49CB915B] [FEAD8F16] 09 99,9 [5E95C501] [01F1B898] 10 93,8 [80A9E5B2] [02FD7E5C] 11 99,9 [06F09383] [0C446C2E]

AllMusic Review by Zac Johnson

A decent 11-track overview of the brief career of trumpeter Clifford Brown, demonstrating the hard bop stylings he pioneered in his short lifetime. Part of the Verve Finest Hour series, this well-presented album is a fine introduction to the artist at an affordable price.

If you like the topic, please click share to help develop our site.

To download the file disable ad blocking, and reload the page.

disable adblock How to disable ad blocking?

Download by magnet link 278 MB Download Torrent

Login using:

Similar topics



   
Current time is: 21-Feb 20:36 :: All times are UTC + 3